<?xml version="1.0" standalone="no"?>
<!DOCTYPE svg PUBLIC "-//W3C//DTD SVG 1.1//EN" "http://www.w3.org/Graphics/SVG/1.1/DTD/svg11.dtd" >
<svg>
<metadata>
Created by FontForge 20120731 at Wed Aug 17 09:03:17 2016
 By www
Copyright (c) 2011 by Pablo Impallari. www.impallari.com Copyright (c) 2011 by Igino Marini. www.ikern.com All rights reserved.
</metadata>
<defs>
<font id="Cabin-Regular" horiz-adv-x="616" >
  <font-face 
    font-family="Cabin"
    font-weight="400"
    font-stretch="normal"
    units-per-em="1000"
    panose-1="2 11 8 3 5 2 2 2 0 4"
    ascent="800"
    descent="-200"
    x-height="490"
    cap-height="700"
    bbox="-41 -250 1167 965"
    underline-thickness="50"
    underline-position="-50"
    stemh="642"
    stemv="90"
    unicode-range="U+0020-2122"
  />
<missing-glyph horiz-adv-x="250" 
d="M162 250h-90v110h90v-110z" />
    <glyph glyph-name=".notdef" horiz-adv-x="250" 
d="M162 250h-90v110h90v-110z" />
    <glyph glyph-name="A" unicode="A" 
d="M609 0h-100l-67 189h-268l-67 -189h-100l251 700h100zM412 275l-104 292l-104 -292h208z" />
    <glyph glyph-name="A.sc" horiz-adv-x="534" 
d="M526 0h-97l-55 141h-214l-54 -141h-98l213 560h93zM343 229l-76 189l-76 -189h152z" />
    <glyph glyph-name="AE" unicode="&#xc6;" horiz-adv-x="865" 
d="M828 0h-436v180h-214l-92 -180h-93l342 700h483v-87h-312v-204h241v-86h-241v-237h322v-86zM392 272v339l-171 -339h171z" />
    <glyph glyph-name="AE.sc" horiz-adv-x="742" 
d="M705 0h-370v138h-175l-74 -138h-94l290 560h415v-89h-259v-135h200v-88h-200v-160h267v-88zM335 228v241l-132 -241h132z" />
    <glyph glyph-name="Aacute" unicode="&#xc1;" 
d="M609 0h-100l-67 189h-268l-67 -189h-100l251 700h100zM412 275l-104 292l-104 -292h208zM402 870l-187 -64v41l187 95v-72z" />
    <glyph glyph-name="Acircumflex" unicode="&#xc2;" 
d="M609 0h-100l-67 189h-268l-67 -189h-100l251 700h100zM412 275l-104 292l-104 -292h208zM456 813l-147 82l-147 -82v36l147 106l147 -106v-36z" />
    <glyph glyph-name="Adieresis" unicode="&#xc4;" 
d="M609 0h-100l-67 189h-268l-67 -189h-100l251 700h100zM412 275l-104 292l-104 -292h208zM433 810h-70v100h70v-100zM255 810h-70v100h70v-100z" />
    <glyph glyph-name="Agrave" unicode="&#xc0;" 
d="M609 0h-100l-67 189h-268l-67 -189h-100l251 700h100zM412 275l-104 292l-104 -292h208zM402 806l-187 64v72l187 -95v-41z" />
    <glyph glyph-name="Aring" unicode="&#xc5;" 
d="M609 0h-100l-67 189h-268l-67 -189h-100l251 700h100zM412 275l-104 292l-104 -292h208zM309 786c-69 0 -104 43 -104 89s36 90 104 90c69 0 104 -44 104 -90s-34 -89 -104 -89zM309 934c-32 0 -60 -24 -60 -59c0 -37 29 -60 60 -60s60 23 60 60c0 35 -28 59 -60 59z" />
    <glyph glyph-name="Atilde" unicode="&#xc3;" 
d="M609 0h-100l-67 189h-268l-67 -189h-100l251 700h100zM412 275l-104 292l-104 -292h208zM375 809c-37 0 -100 51 -132 51c-38 0 -60 -19 -71 -49l-36 9c16 66 68 90 103 90c41 0 105 -49 140 -49c32 0 52 19 69 51l34 -9c-15 -58 -57 -94 -107 -94z" />
    <glyph glyph-name="B" unicode="B" horiz-adv-x="597" 
d="M320 0h-240v700h158c164 0 264 -25 264 -173c0 -59 -3 -98 -57 -154c91 -35 117 -90 117 -165c0 -179 -127 -208 -242 -208zM265 615h-90v-206h118c56 0 111 6 111 111c0 88 -62 95 -139 95zM323 323h-148v-237h98c115 0 190 12 190 113c0 102 -66 124 -140 124z" />
    <glyph glyph-name="B.sc" horiz-adv-x="534" 
d="M290 0h-216v560h146c138 0 226 -20 226 -142c0 -49 -8 -86 -49 -119c73 -26 101 -66 101 -134c0 -134 -110 -165 -208 -165zM253 480h-86v-148h103c40 0 85 10 85 74c0 63 -44 74 -102 74zM287 256h-120v-175h95c85 0 139 16 139 85c0 71 -51 90 -114 90z" />
    <glyph glyph-name="C" unicode="C" 
d="M390 -14c-203 0 -351 142 -351 364s148 364 350 364c71 0 146 -18 194 -41l-10 -88c-55 19 -112 43 -184 43c-161 0 -246 -123 -246 -278s85 -278 248 -278c70 0 127 23 182 42l10 -88c-51 -23 -123 -40 -193 -40z" />
    <glyph glyph-name="C.sc" horiz-adv-x="537" 
d="M335 -11c-171 0 -296 114 -296 291s125 291 296 291c61 0 124 -13 166 -33l-10 -87c-48 17 -95 32 -156 32c-128 0 -194 -87 -194 -203s66 -203 195 -203c60 0 107 15 155 32l10 -88c-43 -19 -105 -32 -166 -32z" />
    <glyph glyph-name="Ccedilla" unicode="&#xc7;" 
d="M390 -14c-203 0 -351 142 -351 364s148 364 350 364c71 0 146 -18 194 -41l-10 -88c-55 19 -112 43 -184 43c-161 0 -246 -123 -246 -278s85 -278 248 -278c70 0 127 23 182 42l10 -88c-51 -23 -123 -40 -193 -40zM375 -54l-88 -133l-46 -5l68 132z" />
    <glyph glyph-name="D" unicode="D" horiz-adv-x="727" 
d="M339 0h-259v700h259c203 0 348 -129 348 -350s-145 -350 -348 -350zM339 614h-164v-528h164c160 0 244 107 244 264s-84 264 -244 264z" />
    <glyph glyph-name="D.sc" horiz-adv-x="629" 
d="M295 0h-221v560h221c172 0 295 -104 295 -280s-123 -280 -295 -280zM295 472h-128v-384h128c127 0 193 75 193 192s-66 192 -193 192z" />
    <glyph glyph-name="E" unicode="E" horiz-adv-x="554" 
d="M516 0h-436v700h427v-86h-332v-205h264v-86h-264v-237h341v-86z" />
    <glyph glyph-name="E.sc" horiz-adv-x="490" 
d="M453 0h-379v560h371v-88h-276v-136h217v-88h-217v-160h284v-88z" />
    <glyph glyph-name="Eacute" unicode="&#xc9;" horiz-adv-x="554" 
d="M516 0h-436v700h427v-86h-332v-205h264v-86h-264v-237h341v-86zM370 870l-187 -64v41l187 95v-72z" />
    <glyph glyph-name="Ecircumflex" unicode="&#xca;" horiz-adv-x="554" 
d="M516 0h-436v700h427v-86h-332v-205h264v-86h-264v-237h341v-86zM423 813l-147 82l-147 -82v36l147 106l147 -106v-36z" />
    <glyph glyph-name="Edieresis" unicode="&#xcb;" horiz-adv-x="554" 
d="M516 0h-436v700h427v-86h-332v-205h264v-86h-264v-237h341v-86zM400 810h-70v100h70v-100zM222 810h-70v100h70v-100z" />
    <glyph glyph-name="Egrave" unicode="&#xc8;" horiz-adv-x="554" 
d="M516 0h-436v700h427v-86h-332v-205h264v-86h-264v-237h341v-86zM370 806l-187 64v72l187 -95v-41z" />
    <glyph glyph-name="Eth" unicode="&#xd0;" horiz-adv-x="730" 
d="M345 0h-256v313h-97v64h97v323h256c201 0 345 -129 345 -350s-144 -350 -345 -350zM345 614h-166v-237h133v-64h-133v-226h166c161 0 243 104 243 263s-82 264 -243 264z" />
    <glyph glyph-name="Euro" unicode="&#x20ac;" horiz-adv-x="703" 
d="M470 17c-135 0 -245 72 -296 198h-141l24 69h99c-3 28 -4 47 -4 66v24h-89l22 64h76c38 154 157 245 309 245c62 0 126 -11 176 -34l-12 -98c-52 22 -101 38 -164 38c-102 0 -163 -55 -192 -151h258l-24 -64h-244v-24c0 -21 1 -40 5 -66h243l-24 -69h-198
c41 -72 97 -104 176 -104c63 0 112 16 164 38l12 -98c-50 -23 -114 -34 -176 -34z" />
    <glyph glyph-name="F" unicode="F" horiz-adv-x="523" 
d="M507 614h-332v-205h256v-86h-256v-323h-95v700h427v-86z" />
    <glyph glyph-name="F.sc" horiz-adv-x="459" 
d="M438 472h-271v-136h210v-88h-210v-248h-93v560h364v-88z" />
    <glyph glyph-name="G" unicode="G" horiz-adv-x="672" 
d="M382 -14c-194 0 -343 142 -343 365c0 221 147 363 351 363c70 0 155 -17 208 -40l-9 -83c-58 20 -132 37 -196 37c-171 0 -250 -123 -250 -278c0 -160 84 -278 266 -278c30 0 80 4 117 19v174h-110v86h205v-312c-55 -29 -159 -53 -239 -53z" />
    <glyph glyph-name="G.sc" horiz-adv-x="583" 
d="M330 -11c-166 0 -291 114 -291 292c0 176 124 290 298 290c58 0 133 -13 177 -32l-9 -87c-48 17 -112 31 -166 31c-136 0 -198 -87 -198 -201c0 -120 67 -205 208 -205c25 0 61 3 91 11v114h-81v79h175v-250c-46 -23 -136 -42 -204 -42z" />
    <glyph glyph-name="H" unicode="H" horiz-adv-x="746" 
d="M666 0h-95v321h-396v-321h-95v700h95v-289h396v289h95v-700z" />
    <glyph glyph-name="H.sc" horiz-adv-x="646" 
d="M572 0h-93v248h-312v-248h-93v560h93v-223h312v223h93v-560z" />
    <glyph glyph-name="I" unicode="I" horiz-adv-x="255" 
d="M175 0h-95v700h95v-700z" />
    <glyph glyph-name="I.sc" horiz-adv-x="241" 
d="M167 0h-93v560h93v-560z" />
    <glyph glyph-name="Iacute" unicode="&#xcd;" horiz-adv-x="255" 
d="M175 0h-95v700h95v-700zM222 870l-187 -64v41l187 95v-72z" />
    <glyph glyph-name="Icircumflex" unicode="&#xce;" horiz-adv-x="255" 
d="M175 0h-95v700h95v-700zM275 813l-147 82l-147 -82v36l147 106l147 -106v-36z" />
    <glyph glyph-name="Idieresis" unicode="&#xcf;" horiz-adv-x="255" 
d="M175 0h-95v700h95v-700zM252 810h-70v100h70v-100zM74 810h-70v100h70v-100z" />
    <glyph glyph-name="Igrave" unicode="&#xcc;" horiz-adv-x="255" 
d="M175 0h-95v700h95v-700zM222 806l-187 64v72l187 -95v-41z" />
    <glyph glyph-name="J" unicode="J" horiz-adv-x="255" 
d="M9 -172h-16l-10 56h4c77 0 93 35 93 113v703h95v-732c0 -90 -51 -140 -166 -140z" />
    <glyph glyph-name="J.sc" horiz-adv-x="241" 
d="M28 -138h-21l-9 66h12c51 0 64 23 64 73v559h93v-582c0 -77 -47 -116 -139 -116z" />
    <glyph glyph-name="K" unicode="K" horiz-adv-x="577" 
d="M573 0h-100l-259 371l259 329h100l-259 -329zM175 0h-95v700h95v-700z" />
    <glyph glyph-name="K.sc" horiz-adv-x="525" 
d="M512 0h-102l-215 296l215 264h102l-215 -264zM167 0h-93v560h93v-560z" />
    <glyph glyph-name="L" unicode="L" horiz-adv-x="501" 
d="M496 0h-416v700h95v-614h321v-86z" />
    <glyph glyph-name="L.sc" horiz-adv-x="440" 
d="M428 0h-354v560h93v-472h261v-88z" />
    <glyph glyph-name="M" unicode="M" horiz-adv-x="812" 
d="M764 0h-100l-66 529l-190 -363l-194 363l-66 -529h-100l94 700h81l184 -347l182 347h82z" />
    <glyph glyph-name="M.sc" horiz-adv-x="712" 
d="M666 0h-98l-54 392l-157 -269l-159 269l-54 -392h-98l81 560h78l152 -263l150 263h78z" />
    <glyph glyph-name="N" unicode="N" horiz-adv-x="704" 
d="M624 0h-81l-368 553v-553h-95v700h103l345 -524v524h96v-700z" />
    <glyph glyph-name="N.sc" horiz-adv-x="614" 
d="M540 0h-78l-295 405v-405h-93v560h96l276 -382v382h94v-560z" />
    <glyph glyph-name="Ntilde" unicode="&#xd1;" horiz-adv-x="704" 
d="M624 0h-81l-368 553v-553h-95v700h103l345 -524v524h96v-700zM418 809c-37 0 -100 51 -132 51c-38 0 -60 -19 -71 -49l-36 9c16 66 68 90 103 90c41 0 105 -49 140 -49c32 0 52 19 69 51l34 -9c-15 -58 -57 -94 -107 -94z" />
    <glyph glyph-name="O" unicode="O" horiz-adv-x="768" 
d="M384 -14c-200 0 -345 142 -345 364s145 364 345 364s345 -142 345 -364s-145 -364 -345 -364zM384 628c-160 0 -241 -123 -241 -278s81 -278 241 -278s241 123 241 278s-81 278 -241 278z" />
    <glyph glyph-name="O.sc" horiz-adv-x="665" 
d="M332 -11c-170 0 -293 114 -293 291s123 291 293 291s294 -114 294 -291s-124 -291 -294 -291zM332 483c-127 0 -191 -87 -191 -203s64 -203 191 -203s191 87 191 203s-64 203 -191 203z" />
    <glyph glyph-name="OE" unicode="&#x152;" horiz-adv-x="1071" 
d="M1034 0h-410v83c-94 -72 -165 -97 -246 -97c-196 0 -338 142 -338 364s142 364 338 364c81 0 152 -25 246 -97v82h401v-85h-310v-205h238v-86h-238v-237h319v-86zM378 628c-160 0 -238 -121 -238 -278s78 -278 238 -278c159 0 237 121 237 278s-78 278 -237 278z" />
    <glyph glyph-name="OE.sc" horiz-adv-x="921" 
d="M884 0h-359v52c-66 -43 -127 -63 -196 -63c-168 0 -290 114 -290 291s122 291 290 291c69 0 130 -20 196 -63v52h351v-88h-258v-136h199v-88h-199v-160h266v-88zM329 483c-127 0 -190 -86 -190 -203s63 -203 190 -203c126 0 189 86 189 203s-63 203 -189 203z" />
    <glyph glyph-name="Oacute" unicode="&#xd3;" horiz-adv-x="768" 
d="M384 -14c-200 0 -345 142 -345 364s145 364 345 364s345 -142 345 -364s-145 -364 -345 -364zM384 628c-160 0 -241 -123 -241 -278s81 -278 241 -278s241 123 241 278s-81 278 -241 278zM477 870l-187 -64v41l187 95v-72z" />
    <glyph glyph-name="Ocircumflex" unicode="&#xd4;" horiz-adv-x="768" 
d="M384 -14c-200 0 -345 142 -345 364s145 364 345 364s345 -142 345 -364s-145 -364 -345 -364zM384 628c-160 0 -241 -123 -241 -278s81 -278 241 -278s241 123 241 278s-81 278 -241 278zM531 813l-147 82l-147 -82v36l147 106l147 -106v-36z" />
    <glyph glyph-name="Odieresis" unicode="&#xd6;" horiz-adv-x="768" 
d="M384 -14c-200 0 -345 142 -345 364s145 364 345 364s345 -142 345 -364s-145 -364 -345 -364zM384 628c-160 0 -241 -123 -241 -278s81 -278 241 -278s241 123 241 278s-81 278 -241 278zM508 810h-70v100h70v-100zM330 810h-70v100h70v-100z" />
    <glyph glyph-name="Ograve" unicode="&#xd2;" horiz-adv-x="768" 
d="M384 -14c-200 0 -345 142 -345 364s145 364 345 364s345 -142 345 -364s-145 -364 -345 -364zM384 628c-160 0 -241 -123 -241 -278s81 -278 241 -278s241 123 241 278s-81 278 -241 278zM477 806l-187 64v72l187 -95v-41z" />
    <glyph glyph-name="Oslash" unicode="&#xd8;" horiz-adv-x="767" 
d="M383 -12c-59 0 -114 12 -176 43l-42 -61h-93l73 105c-70 75 -106 165 -106 275c0 222 145 364 345 364c58 0 111 -12 172 -42l31 44h92l-61 -89c73 -73 111 -165 111 -278c0 -220 -145 -361 -346 -361zM563 548l-303 -443c51 -22 86 -29 124 -29c159 0 237 120 237 276
c0 63 -13 141 -58 196zM383 625c-158 0 -236 -120 -236 -276c0 -61 12 -118 55 -193l301 441c-50 21 -82 28 -120 28z" />
    <glyph glyph-name="Otilde" unicode="&#xd5;" horiz-adv-x="768" 
d="M384 -14c-200 0 -345 142 -345 364s145 364 345 364s345 -142 345 -364s-145 -364 -345 -364zM384 628c-160 0 -241 -123 -241 -278s81 -278 241 -278s241 123 241 278s-81 278 -241 278zM450 809c-37 0 -100 51 -132 51c-38 0 -60 -19 -71 -49l-36 9c16 66 68 90 103 90
c41 0 105 -49 140 -49c32 0 52 19 69 51l34 -9c-15 -58 -57 -94 -107 -94z" />
    <glyph glyph-name="P" unicode="P" horiz-adv-x="572" 
d="M332 245h-152v-245h-100v700h224c130 0 244 -30 244 -218c0 -182 -123 -237 -216 -237zM286 615h-106v-285h134c97 0 135 54 135 148c0 100 -40 137 -163 137z" />
    <glyph glyph-name="P.sc" horiz-adv-x="510" 
d="M289 188h-119v-188h-96v560h180c136 0 229 -24 229 -176c0 -156 -113 -196 -194 -196zM260 481h-90v-207h104c81 0 113 32 113 108c0 70 -29 99 -127 99z" />
    <glyph glyph-name="Q" unicode="Q" horiz-adv-x="768" 
d="M715 62l-50 -59l-65 54c-68 -49 -138 -71 -216 -71c-200 0 -345 142 -345 364s145 364 345 364s345 -142 345 -364c0 -87 -23 -163 -74 -239zM384 628c-162 0 -241 -122 -241 -278s79 -278 241 -278c45 0 106 7 151 40l-103 84l50 61l105 -93c44 69 48 130 48 186
c0 156 -89 278 -251 278z" />
    <glyph glyph-name="Q.sc" horiz-adv-x="665" 
d="M619 58l-52 -62l-57 44c-52 -34 -112 -51 -178 -51c-170 0 -293 114 -293 291s123 291 293 291s294 -114 294 -291c0 -69 -20 -129 -59 -181zM332 483c-127 0 -191 -86 -191 -203s64 -203 191 -203c36 0 77 6 109 23l-80 60l51 64l83 -65c28 39 33 79 33 121
c0 117 -68 203 -196 203z" />
    <glyph glyph-name="R" unicode="R" horiz-adv-x="603" 
d="M584 0h-102l-155 273h-147v-273h-100v700h227c146 0 242 -48 242 -205c0 -86 -47 -159 -128 -197zM306 623h-126v-258h151c52 0 119 32 119 130c0 81 -49 128 -144 128z" />
    <glyph glyph-name="R.sc" horiz-adv-x="537" 
d="M515 0h-99l-128 212h-118v-212h-96v560h204c120 0 205 -39 205 -162c0 -81 -42 -130 -105 -162zM266 483h-96v-183h106c69 0 110 32 110 93c0 57 -33 90 -120 90z" />
    <glyph glyph-name="S" unicode="S" horiz-adv-x="584" 
d="M280 -14c-103 0 -186 22 -229 45l13 111c46 -34 123 -70 218 -70c86 0 167 29 167 108s-80 109 -181 141c-116 37 -228 71 -228 191c0 87 60 202 252 202c91 0 180 -26 220 -48l-10 -101c-68 34 -131 63 -201 63c-72 0 -157 -30 -157 -103c0 -65 67 -91 151 -117
c123 -38 258 -75 258 -227c0 -74 -31 -195 -273 -195z" />
    <glyph glyph-name="S.sc" horiz-adv-x="511" 
d="M246 -11c-89 0 -161 19 -196 39l12 107c36 -29 101 -58 186 -58c69 0 126 18 126 70c0 59 -67 80 -147 104c-92 28 -186 56 -186 155c0 72 53 165 215 165c79 0 155 -23 188 -41l-10 -96c-60 30 -114 50 -172 50c-55 0 -123 -16 -123 -68c0 -47 57 -66 125 -85
c99 -28 213 -59 213 -182c0 -62 -28 -160 -231 -160z" />
    <glyph glyph-name="Scaron" unicode="&#x160;" horiz-adv-x="584" 
d="M280 -14c-103 0 -186 22 -229 45l13 111c46 -34 123 -70 218 -70c86 0 167 29 167 108s-80 109 -181 141c-116 37 -228 71 -228 191c0 87 60 202 252 202c91 0 180 -26 220 -48l-10 -101c-68 34 -131 63 -201 63c-72 0 -157 -30 -157 -103c0 -65 67 -91 151 -117
c123 -38 258 -75 258 -227c0 -74 -31 -195 -273 -195zM439 909l-147 -99l-147 99v41l147 -76l147 76v-41z" />
    <glyph glyph-name="T" unicode="T" horiz-adv-x="533" 
d="M518 614h-204v-614h-95v614h-204v86h503v-86z" />
    <glyph glyph-name="T.sc" horiz-adv-x="470" 
d="M453 472h-171v-472h-94v472h-171v88h436v-88z" />
    <glyph glyph-name="Thorn" unicode="&#xde;" horiz-adv-x="570" 
d="M248 206h-68v-206h-100v700h100v-140h68c210 0 302 -26 302 -168c0 -138 -87 -186 -302 -186zM284 503h-104v-242h104c119 0 171 43 171 124c0 86 -53 118 -171 118z" />
    <glyph glyph-name="U" unicode="U" horiz-adv-x="724" 
d="M362 -14c-197 0 -290 119 -290 311v403h95v-357c0 -138 29 -271 195 -271s195 134 195 271v357h95v-403c0 -192 -93 -311 -290 -311z" />
    <glyph glyph-name="U.sc" horiz-adv-x="627" 
d="M314 -11c-168 0 -247 98 -247 250v321h93v-286c0 -106 24 -197 154 -197c129 0 153 91 153 197v286h93v-321c0 -152 -79 -250 -246 -250z" />
    <glyph glyph-name="Uacute" unicode="&#xda;" horiz-adv-x="726" 
d="M363 -14c-197 0 -290 119 -290 311v403h95v-357c0 -138 29 -271 195 -271s195 134 195 271v357h95v-403c0 -192 -93 -311 -290 -311zM456 870l-187 -64v41l187 95v-72z" />
    <glyph glyph-name="Ucircumflex" unicode="&#xdb;" horiz-adv-x="726" 
d="M363 -14c-197 0 -290 119 -290 311v403h95v-357c0 -138 29 -271 195 -271s195 134 195 271v357h95v-403c0 -192 -93 -311 -290 -311zM510 813l-147 82l-147 -82v36l147 106l147 -106v-36z" />
    <glyph glyph-name="Udieresis" unicode="&#xdc;" horiz-adv-x="726" 
d="M363 -14c-197 0 -290 119 -290 311v403h95v-357c0 -138 29 -271 195 -271s195 134 195 271v357h95v-403c0 -192 -93 -311 -290 -311zM487 810h-70v100h70v-100zM309 810h-70v100h70v-100z" />
    <glyph glyph-name="Ugrave" unicode="&#xd9;" horiz-adv-x="726" 
d="M363 -14c-197 0 -290 119 -290 311v403h95v-357c0 -138 29 -271 195 -271s195 134 195 271v357h95v-403c0 -192 -93 -311 -290 -311zM456 806l-187 64v72l187 -95v-41z" />
    <glyph glyph-name="V" unicode="V" horiz-adv-x="644" 
d="M640 700l-268 -700h-100l-268 700h100l219 -591l217 591h100z" />
    <glyph glyph-name="V.sc" horiz-adv-x="561" 
d="M554 560l-220 -560h-106l-222 560h98l177 -442l175 442h98z" />
    <glyph glyph-name="W" unicode="W" horiz-adv-x="971" 
d="M961 700l-205 -700h-105l-165 574l-171 -574h-105l-196 700h100l155 -592l175 578h86l177 -577l154 591h100z" />
    <glyph glyph-name="W.sc" horiz-adv-x="835" 
d="M822 560l-174 -560h-93l-136 404l-140 -404h-95l-167 560h98l126 -425l141 421h74l145 -414l123 418h98z" />
    <glyph glyph-name="X" unicode="X" horiz-adv-x="599" 
d="M594 0h-100l-202 286l-183 -286h-100l235 349l-235 351h110l180 -273l194 273h100l-250 -339z" />
    <glyph glyph-name="X.sc" horiz-adv-x="540" 
d="M529 0h-104l-159 214l-149 -214h-103l204 279l-200 281h108l146 -205l148 205h103l-205 -270z" />
    <glyph glyph-name="Y" unicode="Y" horiz-adv-x="567" 
d="M569 700l-236 -377v-323h-99v323l-237 377h100l186 -291l186 291h100z" />
    <glyph glyph-name="Y.sc" horiz-adv-x="504" 
d="M503 560l-203 -308v-252h-96v252l-203 308h99l152 -225l152 225h99z" />
    <glyph glyph-name="Yacute" unicode="&#xdd;" horiz-adv-x="567" 
d="M569 700l-236 -377v-323h-99v323l-237 377h100l186 -291l186 291h100zM389 870l-187 -64v41l187 95v-72z" />
    <glyph glyph-name="Ydieresis" unicode="&#x178;" horiz-adv-x="567" 
d="M569 700l-236 -377v-323h-99v323l-237 377h100l186 -291l186 291h100zM420 810h-70v100h70v-100zM242 810h-70v100h70v-100z" />
    <glyph glyph-name="Z" unicode="Z" horiz-adv-x="549" 
d="M542 700l-377 -614h332v-86h-488l376 614h-331v86h488z" />
    <glyph glyph-name="Z.sc" horiz-adv-x="483" 
d="M468 560l-299 -472h261v-88h-415l299 472h-261v88h415z" />
    <glyph glyph-name="Zcaron" unicode="&#x17d;" horiz-adv-x="549" 
d="M542 700l-377 -614h332v-86h-488l376 614h-331v86h488zM431 909l-147 -99l-147 99v41l147 -76l147 76v-41z" />
    <glyph glyph-name="a" unicode="a" horiz-adv-x="480" 
d="M472 62l-14 -72h-7c-87 0 -106 26 -126 72c-37 -43 -87 -72 -150 -72c-91 0 -151 60 -151 142c0 138 168 173 293 175c0 93 -38 113 -107 113c-37 0 -77 -8 -129 -44l-13 73c39 30 101 51 166 51c124 0 173 -58 173 -235v-100c0 -70 4 -103 56 -103h9zM317 128v117
c-143 -5 -201 -35 -201 -108c0 -53 31 -75 76 -75c48 0 96 26 125 66z" />
    <glyph glyph-name="aacute" unicode="&#xe1;" horiz-adv-x="480" 
d="M472 62l-14 -72h-7c-87 0 -106 26 -126 72c-37 -43 -87 -72 -150 -72c-91 0 -151 60 -151 142c0 138 168 173 293 175c0 93 -38 113 -107 113c-37 0 -77 -8 -129 -44l-13 73c39 30 101 51 166 51c124 0 173 -58 173 -235v-100c0 -70 4 -103 56 -103h9zM317 128v117
c-143 -5 -201 -35 -201 -108c0 -53 31 -75 76 -75c48 0 96 26 125 66zM333 660l-187 -64v41l187 95v-72z" />
    <glyph glyph-name="acircumflex" unicode="&#xe2;" horiz-adv-x="480" 
d="M472 62l-14 -72h-7c-87 0 -106 26 -126 72c-37 -43 -87 -72 -150 -72c-91 0 -151 60 -151 142c0 138 168 173 293 175c0 93 -38 113 -107 113c-37 0 -77 -8 -129 -44l-13 73c39 30 101 51 166 51c124 0 173 -58 173 -235v-100c0 -70 4 -103 56 -103h9zM317 128v117
c-143 -5 -201 -35 -201 -108c0 -53 31 -75 76 -75c48 0 96 26 125 66zM387 603l-147 82l-147 -82v36l147 106l147 -106v-36z" />
    <glyph glyph-name="acute" unicode="&#xb4;" horiz-adv-x="303" 
d="M245 660l-187 -64v41l187 95v-72z" />
    <glyph glyph-name="adieresis" unicode="&#xe4;" horiz-adv-x="480" 
d="M472 62l-14 -72h-7c-87 0 -106 26 -126 72c-37 -43 -87 -72 -150 -72c-91 0 -151 60 -151 142c0 138 168 173 293 175c0 93 -38 113 -107 113c-37 0 -77 -8 -129 -44l-13 73c39 30 101 51 166 51c124 0 173 -58 173 -235v-100c0 -70 4 -103 56 -103h9zM317 128v117
c-143 -5 -201 -35 -201 -108c0 -53 31 -75 76 -75c48 0 96 26 125 66zM364 600h-70v100h70v-100zM186 600h-70v100h70v-100z" />
    <glyph glyph-name="ae" unicode="&#xe6;" horiz-adv-x="798" 
d="M764 245h-336c0 -123 69 -183 165 -183c48 0 80 14 134 37l17 -69c-49 -22 -97 -40 -163 -40c-94 0 -164 32 -201 113c-35 -78 -116 -117 -208 -117c-101 0 -150 52 -150 132c0 152 180 183 301 189c-12 80 -43 113 -118 113c-42 0 -78 -10 -122 -29l-8 70
c56 26 110 39 156 39s141 -19 159 -120c29 89 111 120 187 120c114 0 191 -71 191 -200c0 -21 -2 -39 -4 -55zM573 420c-68 0 -116 -33 -137 -113h246c0 79 -40 113 -109 113zM331 245c-93 0 -217 -30 -217 -119c0 -47 34 -64 78 -64c64 0 141 35 141 136c0 13 0 29 -2 47z
" />
    <glyph glyph-name="agrave" unicode="&#xe0;" horiz-adv-x="480" 
d="M472 62l-14 -72h-7c-87 0 -106 26 -126 72c-37 -43 -87 -72 -150 -72c-91 0 -151 60 -151 142c0 138 168 173 293 175c0 93 -38 113 -107 113c-37 0 -77 -8 -129 -44l-13 73c39 30 101 51 166 51c124 0 173 -58 173 -235v-100c0 -70 4 -103 56 -103h9zM317 128v117
c-143 -5 -201 -35 -201 -108c0 -53 31 -75 76 -75c48 0 96 26 125 66zM333 596l-187 64v72l187 -95v-41z" />
    <glyph glyph-name="ampersand" unicode="&#x26;" horiz-adv-x="611" 
d="M593 0h-92l-44 46c-60 -52 -112 -69 -188 -69c-167 0 -233 83 -233 185c0 77 37 141 126 204c-58 71 -75 124 -75 170c0 105 89 167 195 167c99 0 143 -55 143 -126c0 -97 -84 -171 -164 -221l190 -195c29 36 37 148 39 190h81c-2 -59 -12 -167 -65 -251zM270 634
c-53 0 -102 -33 -102 -100c0 -30 10 -73 55 -128c77 61 126 92 126 153c0 48 -31 75 -79 75zM412 105l-208 208c-47 -33 -81 -85 -81 -144c0 -68 45 -124 148 -124c67 0 110 24 141 60z" />
    <glyph glyph-name="aring" unicode="&#xe5;" horiz-adv-x="480" 
d="M472 62l-14 -72h-7c-87 0 -106 26 -126 72c-37 -43 -87 -72 -150 -72c-91 0 -151 60 -151 142c0 138 168 173 293 175c0 93 -38 113 -107 113c-37 0 -77 -8 -129 -44l-13 73c39 30 101 51 166 51c124 0 173 -58 173 -235v-100c0 -70 4 -103 56 -103h9zM317 128v117
c-143 -5 -201 -35 -201 -108c0 -53 31 -75 76 -75c48 0 96 26 125 66zM240 576c-69 0 -104 43 -104 89s36 90 104 90c69 0 104 -44 104 -90s-34 -89 -104 -89zM240 724c-32 0 -60 -24 -60 -59c0 -37 29 -60 60 -60s60 23 60 60c0 35 -28 59 -60 59z" />
    <glyph glyph-name="asciicircum" unicode="^" horiz-adv-x="511" 
d="M461 437l-206 216l-206 -216v106l206 216l206 -216v-106z" />
    <glyph glyph-name="asciitilde" unicode="~" horiz-adv-x="455" 
d="M293 179c-37 0 -100 51 -132 51c-38 0 -60 -19 -71 -49l-36 9c16 66 68 90 103 90c41 0 105 -49 140 -49c32 0 52 19 69 51l34 -9c-15 -58 -57 -94 -107 -94z" />
    <glyph glyph-name="asterisk" unicode="*" horiz-adv-x="426" 
d="M315 427l-102 133l-100 -136l-32 32l108 117l-156 65l23 41l148 -86l-13 156h46l-16 -156l149 86l23 -42l-158 -63l113 -115z" />
    <glyph glyph-name="at" unicode="@" horiz-adv-x="722" 
d="M545 379c-25 26 -65 53 -122 53c-124 0 -254 -142 -254 -281c0 -56 23 -111 95 -111c53 0 135 43 176 116c0 -5 -3 -25 -3 -31c0 -35 13 -83 55 -83c40 0 101 31 133 64c-63 -114 -189 -193 -328 -193c-152 0 -248 95 -248 257c0 218 175 383 377 383
c157 0 249 -99 249 -254c0 -48 -9 -97 -25 -140c-28 -43 -90 -65 -123 -65c-36 0 -37 35 -37 53c0 55 29 122 55 232zM424 371c16 0 46 0 54 -22c-19 -107 -118 -243 -185 -243c-31 0 -44 30 -44 64c0 113 110 201 175 201z" />
    <glyph glyph-name="atilde" unicode="&#xe3;" horiz-adv-x="480" 
d="M472 62l-14 -72h-7c-87 0 -106 26 -126 72c-37 -43 -87 -72 -150 -72c-91 0 -151 60 -151 142c0 138 168 173 293 175c0 93 -38 113 -107 113c-37 0 -77 -8 -129 -44l-13 73c39 30 101 51 166 51c124 0 173 -58 173 -235v-100c0 -70 4 -103 56 -103h9zM317 128v117
c-143 -5 -201 -35 -201 -108c0 -53 31 -75 76 -75c48 0 96 26 125 66zM302 599c-37 0 -100 51 -132 51c-38 0 -60 -19 -71 -49l-36 9c16 66 68 90 103 90c41 0 105 -49 140 -49c32 0 52 19 69 51l34 -9c-15 -58 -57 -94 -107 -94z" />
    <glyph glyph-name="b" unicode="b" horiz-adv-x="555" 
d="M301 -10c-44 0 -114 24 -151 72l-10 -62h-80v750h90v-313c42 51 108 63 152 63c137 0 221 -121 221 -255c0 -143 -97 -255 -222 -255zM291 420c-72 0 -146 -57 -146 -175c0 -123 74 -175 146 -175c86 0 140 79 140 175c0 100 -54 175 -140 175z" />
    <glyph glyph-name="backslash" unicode="\" horiz-adv-x="525" 
d="M506 -85h-93l-378 785h93z" />
    <glyph glyph-name="bar" unicode="|" horiz-adv-x="229" 
d="M159 -209h-89v959h89v-959z" />
    <glyph glyph-name="braceleft" unicode="{" horiz-adv-x="299" 
d="M83 14c0 40 8 97 8 145c0 68 -17 113 -72 148c51 34 72 76 72 149c0 47 -8 104 -8 144c0 90 51 145 214 150v-69c-135 -4 -141 -42 -141 -171c0 -27 3 -58 3 -86c0 -43 -8 -75 -83 -117c75 -41 83 -68 83 -108c0 -29 -3 -60 -3 -94c0 -129 6 -167 141 -171v-69
c-158 5 -214 56 -214 149z" />
    <glyph glyph-name="braceright" unicode="}" horiz-adv-x="299" 
d="M216 14c0 -93 -56 -144 -214 -149v69c135 4 141 42 141 171c0 34 -3 65 -3 94c0 40 8 67 83 108c-75 42 -83 74 -83 117c0 28 3 59 3 86c0 129 -6 167 -141 171v69c163 -5 214 -60 214 -150c0 -40 -8 -97 -8 -144c0 -73 21 -115 72 -149c-55 -35 -72 -80 -72 -148
c0 -48 8 -105 8 -145z" />
    <glyph glyph-name="bracketleft" unicode="[" horiz-adv-x="327" 
d="M327 -135h-257v885h257v-68h-174v-749h174v-68z" />
    <glyph glyph-name="bracketright" unicode="]" horiz-adv-x="333" 
d="M263 -135h-257v84h174v717h-174v84h257v-885z" />
    <glyph glyph-name="brokenbar" unicode="&#xa6;" horiz-adv-x="232" 
d="M160 308h-88v442h88v-442zM160 -210h-88v373h88v-373z" />
    <glyph glyph-name="bullet" unicode="&#x2022;" horiz-adv-x="306" 
d="M153 169c-60 0 -109 49 -109 109s49 109 109 109s109 -49 109 -109s-49 -109 -109 -109z" />
    <glyph glyph-name="c" unicode="c" horiz-adv-x="454" 
d="M277 -10c-163 0 -244 119 -244 256c0 143 80 254 243 254c74 0 122 -13 151 -29l-14 -81c-39 19 -81 30 -127 30c-109 0 -161 -65 -161 -174c0 -107 52 -177 161 -177c46 0 89 11 128 30l12 -72c-29 -19 -70 -37 -149 -37z" />
    <glyph glyph-name="caron" unicode="&#x2c7;" horiz-adv-x="446" 
d="M370 699l-147 -99l-147 99v41l147 -76l147 76v-41z" />
    <glyph glyph-name="ccedilla" unicode="&#xe7;" horiz-adv-x="454" 
d="M277 -10c-163 0 -244 119 -244 256c0 143 80 254 243 254c74 0 122 -13 151 -29l-14 -81c-39 19 -81 30 -127 30c-109 0 -161 -65 -161 -174c0 -107 52 -177 161 -177c46 0 89 11 128 30l12 -72c-29 -19 -70 -37 -149 -37zM326 -54l-88 -133l-46 -5l68 132z" />
    <glyph glyph-name="cedilla" unicode="&#xb8;" horiz-adv-x="303" 
d="M278 -54l-88 -133l-46 -5l68 132z" />
    <glyph glyph-name="cent" unicode="&#xa2;" horiz-adv-x="477" 
d="M292 87l16 -118h-68l17 118c-151 20 -223 132 -223 260c0 129 73 242 225 261l-19 140h68l-18 -140c74 -4 108 -16 136 -32l-8 -78c-40 21 -80 33 -127 33c-98 0 -151 -83 -151 -184c0 -100 53 -182 151 -182c47 0 87 11 127 32l8 -78c-27 -15 -61 -28 -134 -32z" />
    <glyph glyph-name="circumflex" unicode="&#x2c6;" horiz-adv-x="446" 
d="M370 603l-147 82l-147 -82v36l147 106l147 -106v-36z" />
    <glyph glyph-name="colon" unicode=":" horiz-adv-x="204" 
d="M147 354h-90v86h90v-86zM147 0h-90v86h90v-86z" />
    <glyph glyph-name="comma" unicode="," horiz-adv-x="216" 
d="M158 0l-78 -109l-23 13l35 87l-34 9v86h100v-86z" />
    <glyph glyph-name="copyright" unicode="&#xa9;" horiz-adv-x="720" 
d="M360 37c-180 0 -311 130 -311 328c0 199 131 328 311 328s310 -129 310 -328c0 -198 -130 -328 -310 -328zM360 648c-174 0 -259 -123 -259 -283s85 -284 259 -284c173 0 258 124 258 284s-85 283 -258 283zM369 197c-92 0 -158 65 -158 166c0 102 66 167 158 167
c31 0 65 -8 90 -19l-7 -60c-27 11 -54 19 -83 19c-61 0 -91 -45 -91 -107c0 -60 30 -107 91 -107c29 0 56 8 83 20l7 -59c-25 -13 -59 -20 -90 -20z" />
    <glyph glyph-name="currency" unicode="&#xa4;" horiz-adv-x="626" 
d="M564 53l-29 -24l-79 103c-52 -28 -94 -38 -143 -38s-91 10 -143 38l-79 -103l-28 24l77 102c-56 59 -79 123 -79 193s23 134 80 193l-78 102l28 24l78 -103c53 27 95 38 144 38s91 -11 143 -39l80 104l28 -24l-78 -103c56 -59 79 -123 79 -192c0 -70 -24 -134 -80 -194z
M313 540c-106 0 -162 -85 -162 -192s56 -192 162 -192s162 85 162 192s-56 192 -162 192z" />
    <glyph glyph-name="d" unicode="d" horiz-adv-x="555" 
d="M495 0h-80l-10 62c-37 -48 -106 -72 -150 -72c-125 0 -223 112 -223 255c0 134 86 255 223 255c44 0 108 -11 150 -62v312h90v-750zM262 420c-86 0 -138 -75 -138 -175c0 -96 52 -175 138 -175c72 0 153 49 153 172c0 118 -81 178 -153 178z" />
    <glyph glyph-name="dagger" unicode="&#x2020;" horiz-adv-x="424" 
d="M389 373l-158 30l41 -151l-31 -252h-58l-31 252l41 151l-158 -30v85l156 -31l-34 180h110l-34 -180l156 31v-85z" />
    <glyph glyph-name="daggerdbl" unicode="&#x2021;" horiz-adv-x="460" 
d="M407 88l-156 30l34 -177h-110l34 177l-156 -30v84l160 -30l-43 132l43 133l-160 -30v84l156 -30l-34 176h110l-34 -176l156 30v-84l-160 30l43 -133l-43 -132l160 30v-84z" />
    <glyph glyph-name="degree" unicode="&#xb0;" horiz-adv-x="333" 
d="M166 482c-83 0 -132 60 -132 136s49 137 132 137c84 0 133 -61 133 -137s-49 -136 -133 -136zM166 729c-58 0 -88 -56 -88 -111c0 -56 31 -110 88 -110c60 0 88 55 88 110c0 54 -28 111 -88 111z" />
    <glyph glyph-name="dieresis" unicode="&#xa8;" horiz-adv-x="422" 
d="M335 600h-70v100h70v-100zM157 600h-70v100h70v-100z" />
    <glyph glyph-name="divide" unicode="&#xf7;" horiz-adv-x="592" 
d="M336 440h-89v94h89v-94zM526 245h-460v74h460v-74zM336 20h-89v94h89v-94z" />
    <glyph glyph-name="dollar" unicode="$" horiz-adv-x="514" 
d="M285 82l15 -114h-89l17 113c-82 4 -145 21 -176 38l12 109c38 -31 102 -58 186 -58c64 0 110 14 110 63c0 118 -318 76 -318 243c0 64 43 142 186 155l-17 117h90l-16 -117c70 -4 133 -21 161 -37l-9 -96c-55 26 -118 48 -167 48c-59 0 -121 -13 -121 -58
c0 -109 329 -56 329 -254c0 -54 -26 -138 -193 -152z" />
    <glyph glyph-name="dotlessi" unicode="&#x131;" horiz-adv-x="212" 
d="M151 0h-90v490h90v-490z" />
    <glyph glyph-name="dotlessj" unicode="&#x237;" horiz-adv-x="212" 
d="M28 -237l-30 -5l-10 69c59 6 73 21 73 100v563h90v-597c0 -94 -72 -122 -123 -130z" />
    <glyph glyph-name="e" unicode="e" horiz-adv-x="512" 
d="M478 245h-355c13 -136 91 -175 184 -175c45 0 97 9 141 29l12 -71c-38 -17 -93 -38 -164 -38c-173 0 -265 118 -265 259c0 137 88 251 240 251c122 0 211 -75 211 -207c0 -14 -1 -31 -4 -48zM269 420c-80 0 -120 -42 -138 -113h258c0 69 -38 113 -120 113z" />
    <glyph glyph-name="eacute" unicode="&#xe9;" horiz-adv-x="512" 
d="M478 245h-355c13 -136 91 -175 184 -175c45 0 97 9 141 29l12 -71c-38 -17 -93 -38 -164 -38c-173 0 -265 118 -265 259c0 137 88 251 240 251c122 0 211 -75 211 -207c0 -14 -1 -31 -4 -48zM269 420c-80 0 -120 -42 -138 -113h258c0 69 -38 113 -120 113zM349 660
l-187 -64v41l187 95v-72z" />
    <glyph glyph-name="ecircumflex" unicode="&#xea;" horiz-adv-x="512" 
d="M478 245h-355c13 -136 91 -175 184 -175c45 0 97 9 141 29l12 -71c-38 -17 -93 -38 -164 -38c-173 0 -265 118 -265 259c0 137 88 251 240 251c122 0 211 -75 211 -207c0 -14 -1 -31 -4 -48zM269 420c-80 0 -120 -42 -138 -113h258c0 69 -38 113 -120 113zM402 603
l-147 82l-147 -82v36l147 106l147 -106v-36z" />
    <glyph glyph-name="edieresis" unicode="&#xeb;" horiz-adv-x="512" 
d="M478 245h-355c13 -136 91 -175 184 -175c45 0 97 9 141 29l12 -71c-38 -17 -93 -38 -164 -38c-173 0 -265 118 -265 259c0 137 88 251 240 251c122 0 211 -75 211 -207c0 -14 -1 -31 -4 -48zM269 420c-80 0 -120 -42 -138 -113h258c0 69 -38 113 -120 113zM379 600h-70
v100h70v-100zM201 600h-70v100h70v-100z" />
    <glyph glyph-name="egrave" unicode="&#xe8;" horiz-adv-x="512" 
d="M478 245h-355c13 -136 91 -175 184 -175c45 0 97 9 141 29l12 -71c-38 -17 -93 -38 -164 -38c-173 0 -265 118 -265 259c0 137 88 251 240 251c122 0 211 -75 211 -207c0 -14 -1 -31 -4 -48zM269 420c-80 0 -120 -42 -138 -113h258c0 69 -38 113 -120 113zM349 596
l-187 64v72l187 -95v-41z" />
    <glyph glyph-name="eight" unicode="8" horiz-adv-x="609" 
d="M296 -14c-170 0 -237 107 -237 203c0 59 25 129 134 187c-72 56 -93 108 -93 164c0 84 47 173 208 173c154 0 202 -82 202 -158c0 -74 -31 -108 -117 -168c107 -37 156 -94 156 -189s-76 -212 -253 -212zM303 628c-72 0 -116 -35 -116 -94c0 -46 45 -88 111 -113
c81 24 117 74 117 124c0 52 -40 83 -112 83zM306 338c-83 -16 -143 -63 -143 -149c0 -79 51 -117 137 -117c83 0 148 52 148 127c0 72 -65 120 -142 139z" />
    <glyph glyph-name="eightinferior" unicode="&#x2088;" horiz-adv-x="372" 
d="M180 -8c-94 0 -136 52 -136 108c0 34 16 72 63 104c-29 20 -40 55 -40 86c0 49 29 96 121 96c89 0 118 -41 118 -88c0 -36 -18 -67 -50 -90c42 -17 72 -54 72 -97c0 -55 -44 -119 -148 -119zM186 330c-40 0 -54 -22 -54 -47c0 -21 9 -43 51 -53c42 10 55 32 55 55
s-13 45 -52 45zM188 179c-36 -5 -73 -30 -73 -73c0 -36 26 -57 68 -57c46 0 72 24 72 59c0 41 -32 64 -67 71z" />
    <glyph glyph-name="eightsuperior" unicode="&#x2078;" horiz-adv-x="346" 
d="M167 312c-94 0 -136 52 -136 108c0 34 16 72 63 104c-29 20 -40 55 -40 86c0 49 29 96 121 96c89 0 118 -41 118 -88c0 -36 -18 -67 -50 -90c42 -17 72 -54 72 -97c0 -55 -44 -119 -148 -119zM173 650c-40 0 -54 -22 -54 -47c0 -21 9 -43 51 -53c42 10 55 32 55 55
s-13 45 -52 45zM175 499c-36 -5 -73 -30 -73 -73c0 -36 26 -57 68 -57c46 0 72 24 72 59c0 41 -32 64 -67 71z" />
    <glyph glyph-name="ellipsis" unicode="&#x2026;" horiz-adv-x="676" 
d="M147 0h-90v86h90v-86zM383 0h-90v86h90v-86zM619 0h-90v86h90v-86z" />
    <glyph glyph-name="emdash" unicode="&#x2014;" horiz-adv-x="594" 
d="M537 238h-480v86h480v-86z" />
    <glyph glyph-name="endash" unicode="&#x2013;" horiz-adv-x="502" 
d="M445 238h-388v86h388v-86z" />
    <glyph glyph-name="equal" unicode="=" horiz-adv-x="502" 
d="M436 318h-370v76h370v-76zM436 160h-370v76h370v-76z" />
    <glyph glyph-name="eth" unicode="&#xf0;" horiz-adv-x="517" 
d="M249 -12c-126 0 -221 90 -221 213c0 101 64 225 211 225c68 0 113 -31 135 -55c-8 58 -42 153 -86 189c-51 -36 -95 -56 -141 -62l-30 55c35 5 75 17 128 52c-39 35 -81 54 -121 54l32 42c39 0 94 -16 149 -55c29 26 43 43 59 64l46 -12c-19 -28 -38 -50 -69 -84
c86 -79 143 -220 143 -357c0 -215 -137 -269 -235 -269zM254 343c-79 0 -126 -64 -126 -133c0 -76 48 -139 125 -139c72 0 120 58 120 137s-46 135 -119 135z" />
    <glyph glyph-name="exclam" unicode="!" horiz-adv-x="242" 
d="M183 750l-30 -550h-64l-30 550h124zM163 0h-84v86h84v-86z" />
    <glyph glyph-name="exclamdown" unicode="&#xa1;" horiz-adv-x="224" 
d="M50 -250l30 550h64l30 -550h-124zM70 500h84v-86h-84v86z" />
    <glyph glyph-name="f" unicode="f" horiz-adv-x="331" 
d="M317 420h-132v-420h-90v420h-85l12 70h73v124c0 79 39 136 114 136c57 0 78 -5 102 -13l-14 -76c-22 7 -41 9 -60 9c-47 0 -52 -20 -52 -120v-60h132v-70z" />
    <glyph glyph-name="five" unicode="5" horiz-adv-x="541" 
d="M220 -14c-67 0 -154 23 -169 39l23 89c43 -25 100 -42 145 -42c90 0 166 66 166 160c0 83 -59 123 -211 123h-85l42 345h318l-9 -86h-233l-20 -174c219 -2 302 -66 302 -204c0 -153 -130 -250 -269 -250z" />
    <glyph glyph-name="fiveinferior" unicode="&#x2085;" horiz-adv-x="332" 
d="M141 -7c-52 0 -104 23 -106 32l17 65c19 -16 51 -29 87 -29c40 0 78 13 78 61c0 28 -16 55 -99 55h-62l25 201h187l-8 -70h-123l-10 -71c113 -1 162 -35 162 -113c0 -89 -73 -131 -148 -131z" />
    <glyph glyph-name="fivesuperior" unicode="&#x2075;" horiz-adv-x="307" 
d="M130 313c-52 0 -104 23 -106 32l17 65c19 -16 51 -29 87 -29c40 0 78 13 78 61c0 28 -16 55 -99 55h-62l25 201h187l-8 -70h-123l-10 -71c113 -1 162 -35 162 -113c0 -89 -73 -131 -148 -131z" />
    <glyph glyph-name="florin" unicode="&#x192;" horiz-adv-x="351" 
d="M371 703l-7 -55c-9 6 -22 8 -32 8c-85 0 -111 -48 -131 -166h148l-6 -56h-153l-86 -526c-20 -121 -87 -149 -112 -149h-13l-13 63c38 8 61 36 71 101l80 511h-94l7 56h96l9 61c16 105 93 163 184 163c17 0 34 -5 52 -11z" />
    <glyph glyph-name="four" unicode="4" horiz-adv-x="559" 
d="M500 190h-85v-190h-100v190h-301l322 510h79v-424h85v-86zM315 276v254l-153 -254h153z" />
    <glyph glyph-name="fourinferior" unicode="&#x2084;" horiz-adv-x="357" 
d="M315 103h-49v-103h-74v103h-175l187 275h62v-218h49v-57zM192 160v110l-74 -110h74z" />
    <glyph glyph-name="foursuperior" unicode="&#x2074;" horiz-adv-x="330" 
d="M303 423h-49v-103h-74v103h-175l187 275h62v-218h49v-57zM180 480v110l-74 -110h74z" />
    <glyph glyph-name="g" unicode="g" horiz-adv-x="498" 
d="M255 -250c-170 0 -229 83 -229 148c0 27 10 83 87 110c-42 20 -50 47 -50 62c0 17 11 51 58 73c-70 51 -85 110 -85 160c0 108 70 197 200 197c46 0 85 -11 125 -36c30 16 70 28 119 28h8l-11 -60h-23c-7 0 -37 -2 -58 -7c36 -43 45 -81 45 -117
c0 -99 -70 -195 -198 -195c-23 0 -49 3 -70 9c-14 -8 -24 -18 -24 -30c0 -25 36 -32 152 -52c77 -13 200 -40 200 -136c0 -79 -84 -154 -246 -154zM237 428c-75 0 -115 -51 -115 -122c0 -77 48 -124 117 -124c75 0 116 56 116 127c0 77 -49 119 -118 119zM279 -26
c-2 0 -77 10 -89 12c-45 -14 -78 -51 -78 -86c0 -45 53 -80 147 -80c100 0 151 40 151 78c0 35 -42 60 -131 76z" />
    <glyph glyph-name="germandbls" unicode="&#xdf;" horiz-adv-x="557" 
d="M317 -15c-25 0 -33 2 -50 3v60c115 2 191 19 191 96c0 115 -171 168 -171 220c0 43 118 91 118 206c0 87 -67 115 -120 115c-71 0 -109 -50 -109 -112v-709h-86v575h-74l7 61h67v68c0 111 102 182 195 182c80 0 191 -53 191 -172c0 -121 -114 -180 -114 -207
c0 -33 178 -96 178 -231c0 -106 -108 -155 -223 -155z" />
    <glyph glyph-name="grave" unicode="`" horiz-adv-x="303" 
d="M245 596l-187 64v72l187 -95v-41z" />
    <glyph glyph-name="greater" unicode="&#x3e;" horiz-adv-x="404" 
d="M371 284l-216 -206h-95l216 206l-216 206h95z" />
    <glyph glyph-name="guillemotleft" unicode="&#xab;" horiz-adv-x="563" 
d="M523 78h-101l-147 206l147 206h101l-148 -206zM262 78h-100l-147 206l147 206h100l-147 -206z" />
    <glyph glyph-name="guillemotright" unicode="&#xbb;" horiz-adv-x="563" 
d="M548 284l-147 -206h-100l147 206l-147 206h100zM289 284l-147 -206h-101l148 206l-148 206h101z" />
    <glyph glyph-name="guilsinglleft" unicode="&#x2039;" horiz-adv-x="322" 
d="M282 78h-109l-159 206l159 206h109l-159 -206z" />
    <glyph glyph-name="guilsinglright" unicode="&#x203a;" horiz-adv-x="323" 
d="M309 284l-159 -206h-109l159 206l-159 206h109z" />
    <glyph glyph-name="h" unicode="h" horiz-adv-x="542" 
d="M486 0h-90v262c0 116 -30 158 -117 158c-60 0 -100 -20 -128 -64v-356h-91v750h91v-313c34 43 78 63 142 63c141 0 193 -97 193 -238v-262z" />
    <glyph glyph-name="hyphen" unicode="-" horiz-adv-x="424" 
d="M367 238h-310v86h310v-86z" />
    <glyph glyph-name="i" unicode="i" horiz-adv-x="212" 
d="M151 600h-90v100h90v-100zM151 0h-90v490h90v-490z" />
    <glyph glyph-name="iacute" unicode="&#xed;" horiz-adv-x="212" 
d="M151 0h-90v490h90v-490zM200 660l-187 -64v41l187 95v-72z" />
    <glyph glyph-name="icircumflex" unicode="&#xee;" horiz-adv-x="212" 
d="M151 0h-90v490h90v-490zM253 603l-147 82l-147 -82v36l147 106l147 -106v-36z" />
    <glyph glyph-name="idieresis" unicode="&#xef;" horiz-adv-x="212" 
d="M151 0h-90v490h90v-490zM230 600h-70v100h70v-100zM52 600h-70v100h70v-100z" />
    <glyph glyph-name="igrave" unicode="&#xec;" horiz-adv-x="212" 
d="M151 0h-90v490h90v-490zM200 596l-187 64v72l187 -95v-41z" />
    <glyph glyph-name="j" unicode="j" horiz-adv-x="212" 
d="M28 -237l-30 -5l-10 69c59 6 73 21 73 100v563h90v-597c0 -94 -72 -122 -123 -130zM151 600h-90v100h90v-100z" />
    <glyph glyph-name="k" unicode="k" horiz-adv-x="448" 
d="M150 0h-90v750h90v-481l180 221h110l-202 -226l207 -264h-110l-185 249v-249z" />
    <glyph glyph-name="l" unicode="l" horiz-adv-x="236" 
d="M229 62l-13 -72h-29c-95 0 -127 59 -127 118v642h90v-590c0 -84 10 -98 79 -98z" />
    <glyph glyph-name="less" unicode="&#x3c;" horiz-adv-x="405" 
d="M344 78h-95l-216 206l216 206h95l-216 -206z" />
    <glyph glyph-name="logicalnot" unicode="&#xac;" horiz-adv-x="596" 
d="M526 151h-55v195h-405v60h460v-255z" />
    <glyph glyph-name="m" unicode="m" horiz-adv-x="877" 
d="M821 0h-90v288c0 92 -34 132 -115 132c-115 0 -130 -81 -130 -136v-284h-90v270c0 120 -47 150 -115 150c-56 0 -105 -20 -130 -64v-356h-90v490h70l10 -52c56 50 95 62 147 62c57 0 121 -16 166 -98c32 61 88 98 179 98c123 0 188 -67 188 -211v-289z" />
    <glyph glyph-name="mu" unicode="&#xb5;" horiz-adv-x="591" 
d="M556 62l-16 -72h-26c-52 0 -88 23 -107 73c-38 -44 -70 -74 -134 -74c-39 0 -65 5 -112 38v-269h-88v732h89v-258c0 -103 25 -163 122 -163c52 0 80 17 116 58v363h87v-320c0 -68 8 -108 47 -108h22z" />
    <glyph glyph-name="multiply" unicode="&#xd7;" horiz-adv-x="439" 
d="M378 155l-36 -36l-123 123l-122 -123l-36 36l123 122l-123 122l36 36l122 -123l123 123l36 -36l-124 -122z" />
    <glyph glyph-name="n" unicode="n" horiz-adv-x="559" 
d="M503 0h-90v270c0 104 -35 150 -128 150c-56 0 -109 -20 -134 -64v-356h-90v490h70l10 -52c56 50 110 62 162 62c143 0 200 -89 200 -230v-270z" />
    <glyph glyph-name="nine" unicode="9" horiz-adv-x="570" 
d="M288 714c113 0 219 -58 219 -252c0 -299 -190 -462 -291 -462l-73 38c96 44 228 120 253 298c-27 -37 -83 -57 -139 -57c-129 0 -212 65 -212 202c0 131 94 233 243 233zM266 361c76 0 141 54 141 140c0 88 -64 130 -131 130c-90 0 -134 -73 -134 -145
c0 -53 24 -125 124 -125z" />
    <glyph glyph-name="nineinferior" unicode="&#x2089;" horiz-adv-x="346" 
d="M174 386c70 0 127 -42 127 -145c0 -136 -102 -241 -175 -241l-47 28c36 0 141 66 146 142c-16 -16 -62 -19 -71 -19c-71 0 -122 36 -122 107c0 69 55 128 142 128zM161 209c39 0 69 18 69 58c0 44 -34 54 -61 54c-42 0 -64 -31 -64 -60c0 -27 15 -52 56 -52z" />
    <glyph glyph-name="ninesuperior" unicode="&#x2079;" horiz-adv-x="324" 
d="M164 706c70 0 127 -42 127 -145c0 -136 -102 -241 -175 -241l-47 28c38 0 141 66 146 142c-16 -16 -62 -19 -71 -19c-71 0 -122 36 -122 107c0 69 55 128 142 128zM151 529c39 0 69 18 69 58c0 44 -34 54 -61 54c-42 0 -64 -31 -64 -60c0 -27 15 -52 56 -52z" />
    <glyph glyph-name="ntilde" unicode="&#xf1;" horiz-adv-x="559" 
d="M503 0h-90v270c0 104 -35 150 -128 150c-56 0 -109 -20 -134 -64v-356h-90v490h70l10 -52c56 50 110 62 162 62c143 0 200 -89 200 -230v-270zM345 599c-37 0 -100 51 -132 51c-38 0 -60 -19 -71 -49l-36 9c16 66 68 90 103 90c41 0 105 -49 140 -49c32 0 52 19 69 51
l34 -9c-15 -58 -57 -94 -107 -94z" />
    <glyph glyph-name="numbersign" unicode="#" horiz-adv-x="704" 
d="M672 507l-29 -85h-116l-45 -115h128l-41 -91h-122l-86 -227h-81l87 227h-133l-87 -227h-80l86 227h-120l40 91h115l45 115h-126l29 85h129l74 193h81l-75 -193h133l75 193h80l-74 -193h113zM446 422h-132l-45 -115h132z" />
    <glyph glyph-name="o" unicode="o" horiz-adv-x="550" 
d="M275 -10c-154 0 -243 113 -243 255s89 255 243 255c153 0 243 -113 243 -255s-90 -255 -243 -255zM275 420c-97 0 -151 -65 -151 -175s54 -175 151 -175s151 65 151 175s-54 175 -151 175z" />
    <glyph glyph-name="oacute" unicode="&#xf3;" horiz-adv-x="550" 
d="M275 -10c-154 0 -243 113 -243 255s89 255 243 255c153 0 243 -113 243 -255s-90 -255 -243 -255zM275 420c-97 0 -151 -65 -151 -175s54 -175 151 -175s151 65 151 175s-54 175 -151 175zM368 660l-187 -64v41l187 95v-72z" />
    <glyph glyph-name="ocircumflex" unicode="&#xf4;" horiz-adv-x="550" 
d="M275 -10c-154 0 -243 113 -243 255s89 255 243 255c153 0 243 -113 243 -255s-90 -255 -243 -255zM275 420c-97 0 -151 -65 -151 -175s54 -175 151 -175s151 65 151 175s-54 175 -151 175zM422 603l-147 82l-147 -82v36l147 106l147 -106v-36z" />
    <glyph glyph-name="odieresis" unicode="&#xf6;" horiz-adv-x="550" 
d="M275 -10c-154 0 -243 113 -243 255s89 255 243 255c153 0 243 -113 243 -255s-90 -255 -243 -255zM275 420c-97 0 -151 -65 -151 -175s54 -175 151 -175s151 65 151 175s-54 175 -151 175zM399 600h-70v100h70v-100zM221 600h-70v100h70v-100z" />
    <glyph glyph-name="oe" unicode="&#x153;" horiz-adv-x="902" 
d="M868 245h-343c0 -157 101 -183 158 -183c56 0 114 16 155 37l10 -77c-37 -17 -89 -32 -153 -32c-127 0 -188 37 -218 107c-30 -70 -114 -107 -199 -107c-154 0 -246 116 -246 260c0 141 91 250 250 250c73 0 161 -32 191 -102c38 70 120 102 186 102
c126 0 213 -75 213 -204c0 -19 -1 -34 -4 -51zM658 420c-70 0 -114 -32 -131 -113h253c-6 72 -52 113 -122 113zM282 420c-104 0 -158 -65 -158 -175s53 -175 157 -175s152 78 152 178s-54 172 -151 172z" />
    <glyph glyph-name="ograve" unicode="&#xf2;" horiz-adv-x="550" 
d="M275 -10c-154 0 -243 113 -243 255s89 255 243 255c153 0 243 -113 243 -255s-90 -255 -243 -255zM275 420c-97 0 -151 -65 -151 -175s54 -175 151 -175s151 65 151 175s-54 175 -151 175zM368 596l-187 64v72l187 -95v-41z" />
    <glyph glyph-name="one" unicode="1" horiz-adv-x="355" 
d="M254 0h-100v563c-48 -39 -76 -52 -104 -61l-16 89c54 18 117 62 147 109h73v-700z" />
    <glyph glyph-name="onehalf" unicode="&#xbd;" horiz-adv-x="729" 
d="M536 700l-378 -785h-100l378 785h100zM694 0h-248c150 202 164 246 164 273c0 33 -21 53 -57 53c-50 0 -81 -42 -93 -59l-9 65c11 20 51 54 117 54c86 0 112 -57 112 -102c0 -49 -31 -110 -106 -214h120v-70zM168 320h-75v276c-15 -7 -31 -14 -51 -17l-6 60
c25 4 64 33 75 59h57v-378z" />
    <glyph glyph-name="oneinferior" unicode="&#x2081;" horiz-adv-x="237" 
d="M170 0h-75v276c-15 -7 -31 -14 -51 -17l-6 60c25 4 64 33 75 59h57v-378z" />
    <glyph glyph-name="onequarter" unicode="&#xbc;" horiz-adv-x="717" 
d="M171 320h-75v276c-15 -7 -31 -14 -51 -17l-6 60c25 4 64 33 75 59h57v-378zM539 700l-378 -785h-100l378 785h100zM683 103h-49v-103h-74v103h-175l187 275h62v-218h49v-57zM560 160v110l-74 -110h74z" />
    <glyph glyph-name="onesuperior" unicode="&#xb9;" horiz-adv-x="216" 
d="M155 320h-75v276c-15 -7 -31 -14 -51 -17l-6 60c25 4 64 33 75 59h57v-378z" />
    <glyph glyph-name="ordfeminine" unicode="&#xaa;" horiz-adv-x="349" 
d="M313 495l-7 -61h-27c-33 0 -56 13 -67 31c-20 -20 -56 -31 -92 -31c-48 0 -87 31 -87 85c0 80 113 99 168 101c-1 28 -15 42 -53 42c-27 0 -51 -7 -83 -20l-6 60c36 16 72 23 109 23c67 0 109 -31 109 -108v-80c0 -42 5 -42 26 -42h10zM202 507v63
c-41 -1 -90 -16 -90 -48c0 -22 12 -32 40 -32c12 0 34 5 50 17z" />
    <glyph glyph-name="ordmasculine" unicode="&#xba;" horiz-adv-x="370" 
d="M185 434c-96 0 -152 68 -152 146s56 145 152 145s152 -67 152 -145s-56 -146 -152 -146zM185 666c-48 0 -75 -36 -75 -86s27 -86 75 -86s75 36 75 86s-27 86 -75 86z" />
    <glyph glyph-name="oslash" unicode="&#xf8;" horiz-adv-x="570" 
d="M286 -8c-25 0 -49 3 -86 11l-19 -38h-71l32 66c-74 55 -109 132 -109 218c0 140 93 257 252 257c25 0 48 -3 84 -12l19 40h74l-34 -66c75 -57 111 -133 111 -220c0 -140 -93 -256 -253 -256zM395 398l-163 -330c35 -5 44 -6 55 -6c100 0 155 83 155 186
c0 46 -11 124 -47 150zM284 436c-99 0 -154 -82 -154 -188c0 -43 9 -83 46 -148l161 329c-34 6 -42 7 -53 7z" />
    <glyph glyph-name="otilde" unicode="&#xf5;" horiz-adv-x="550" 
d="M275 -10c-154 0 -243 113 -243 255s89 255 243 255c153 0 243 -113 243 -255s-90 -255 -243 -255zM275 420c-97 0 -151 -65 -151 -175s54 -175 151 -175s151 65 151 175s-54 175 -151 175zM341 599c-37 0 -100 51 -132 51c-38 0 -60 -19 -71 -49l-36 9
c16 66 68 90 103 90c41 0 105 -49 140 -49c32 0 52 19 69 51l34 -9c-15 -58 -57 -94 -107 -94z" />
    <glyph glyph-name="p" unicode="p" horiz-adv-x="557" 
d="M305 -10c-44 0 -117 24 -154 72v-304h-90v732h70l10 -70c42 51 85 80 165 80c137 0 218 -121 218 -255c0 -143 -74 -255 -219 -255zM295 420c-72 0 -149 -57 -149 -175c0 -123 77 -175 149 -175c86 0 137 79 137 175c0 100 -51 175 -137 175z" />
    <glyph glyph-name="paragraph" unicode="&#xb6;" horiz-adv-x="622" 
d="M580 633h-75v-633h-48v633h-101v-633h-41v243c-198 11 -282 124 -282 231c0 110 90 226 288 226h259v-67z" />
    <glyph glyph-name="parenleft" unicode="(" horiz-adv-x="261" 
d="M237 -136h-79c-71 108 -116 232 -116 443s45 335 116 443h79c-69 -112 -123 -252 -123 -443s54 -331 123 -443z" />
    <glyph glyph-name="parenright" unicode=")" horiz-adv-x="261" 
d="M103 -136h-79c69 112 123 252 123 443s-54 331 -123 443h79c71 -108 116 -232 116 -443s-45 -335 -116 -443z" />
    <glyph glyph-name="percent" unicode="%" horiz-adv-x="840" 
d="M653 -13c-87 0 -148 67 -148 184c0 121 71 191 153 191c84 0 148 -67 148 -183c0 -122 -63 -192 -153 -192zM657 700l-420 -712h-75l421 712h74zM181 333c-85 0 -146 65 -146 182c0 122 70 190 151 190c82 0 146 -64 146 -181c0 -123 -64 -191 -151 -191zM654 315
c-55 0 -99 -54 -99 -144c0 -86 38 -135 96 -135c62 0 100 52 100 143c0 85 -42 136 -97 136zM185 654c-51 0 -94 -55 -94 -139c0 -79 42 -130 91 -130c53 0 95 54 95 139c0 78 -44 130 -92 130z" />
    <glyph glyph-name="period" unicode="." horiz-adv-x="204" 
d="M147 0h-90v86h90v-86z" />
    <glyph glyph-name="periodcentered" unicode="&#xb7;" horiz-adv-x="238" 
d="M181 213h-124v130h124v-130z" />
    <glyph glyph-name="perthousand" unicode="&#x2030;" horiz-adv-x="1201" 
d="M654 -13c-87 0 -148 67 -148 184c0 121 71 191 153 191c84 0 148 -67 148 -183c0 -122 -63 -192 -153 -192zM658 700l-420 -712h-75l421 712h74zM182 333c-85 0 -146 65 -146 182c0 122 70 190 151 190c82 0 146 -64 146 -181c0 -123 -64 -191 -151 -191zM655 315
c-55 0 -99 -54 -99 -144c0 -86 38 -135 96 -135c62 0 100 52 100 143c0 85 -42 136 -97 136zM186 654c-51 0 -94 -55 -94 -139c0 -79 42 -130 91 -130c53 0 95 54 95 139c0 78 -44 130 -92 130zM1014 -13c-87 0 -148 67 -148 184c0 121 71 191 153 191
c84 0 148 -67 148 -183c0 -122 -63 -192 -153 -192zM1015 315c-55 0 -99 -54 -99 -144c0 -86 38 -135 96 -135c62 0 100 52 100 143c0 85 -42 136 -97 136z" />
    <glyph glyph-name="plus" unicode="+" horiz-adv-x="463" 
d="M416 238h-145v-136h-80v136h-145v86h145v128h80v-128h145v-86z" />
    <glyph glyph-name="plusminus" unicode="&#xb1;" horiz-adv-x="498" 
d="M434 327h-153v-144h-64v144h-153v67h153v138h64v-138h153v-67zM434 42h-370v67h370v-67z" />
    <glyph glyph-name="q" unicode="q" horiz-adv-x="557" 
d="M252 -10c-145 0 -219 112 -219 255c0 134 81 255 218 255c80 0 123 -29 165 -80l10 70h70v-732h-90v304c-37 -48 -110 -72 -154 -72zM262 420c-86 0 -137 -75 -137 -175c0 -96 51 -175 137 -175c72 0 149 52 149 175c0 118 -77 175 -149 175z" />
    <glyph glyph-name="question" unicode="?" horiz-adv-x="441" 
d="M226 200h-59c-2 27 -3 42 -3 45c0 124 150 188 150 316c0 85 -66 123 -128 123c-66 0 -119 -43 -131 -68l-25 67c24 37 86 67 159 67c136 0 208 -105 208 -187c0 -127 -171 -231 -171 -336v-27zM244 0h-91v86h91v-86z" />
    <glyph glyph-name="questiondown" unicode="&#xbf;" horiz-adv-x="449" 
d="M233 300h59c2 -27 3 -42 3 -45c0 -124 -150 -188 -150 -316c0 -85 66 -123 128 -123c66 0 119 43 131 68l25 -67c-24 -37 -86 -67 -159 -67c-136 0 -208 105 -208 187c0 127 171 231 171 336v27zM215 500h91v-86h-91v86z" />
    <glyph glyph-name="quotedbl" unicode="&#x22;" horiz-adv-x="402" 
d="M362 750l-20 -300h-52l-20 300h92zM134 750l-20 -300h-54l-20 300h94z" />
    <glyph glyph-name="quotedblbase" unicode="&#x201e;" horiz-adv-x="446" 
d="M158 0l-78 -109l-23 13l35 87l-34 9v86h100v-86zM388 0l-78 -109l-23 13l35 87l-34 9v86h100v-86z" />
    <glyph glyph-name="quotedblleft" unicode="&#x201c;" horiz-adv-x="396" 
d="M43 641l78 109l23 -13l-35 -87l34 -9v-86h-100v86zM253 641l78 109l23 -13l-35 -87l34 -9v-86h-100v86z" />
    <glyph glyph-name="quotedblright" unicode="&#x201d;" horiz-adv-x="379" 
d="M353 664l-78 -109l-23 13l35 87l-34 9v86h100v-86zM143 664l-78 -109l-23 13l35 87l-34 9v86h100v-86z" />
    <glyph glyph-name="quoteleft" unicode="&#x2018;" horiz-adv-x="186" 
d="M43 641l78 109l23 -13l-35 -87l34 -9v-86h-100v86z" />
    <glyph glyph-name="quoteright" unicode="&#x2019;" horiz-adv-x="169" 
d="M143 664l-78 -109l-23 13l35 87l-34 9v86h100v-86z" />
    <glyph glyph-name="quotesinglbase" unicode="&#x201a;" horiz-adv-x="216" 
d="M158 0l-78 -109l-23 13l35 87l-34 9v86h100v-86z" />
    <glyph glyph-name="quotesingle" unicode="'" horiz-adv-x="182" 
d="M141 750l-18 -300h-64l-18 300h100z" />
    <glyph glyph-name="r" unicode="r" horiz-adv-x="321" 
d="M320 508l-20 -99h-31c-41 0 -95 -32 -112 -63v-346h-96v490h74l11 -81c59 67 106 99 166 99h8z" />
    <glyph glyph-name="registered" unicode="&#xae;" horiz-adv-x="720" 
d="M360 37c-180 0 -311 130 -311 328c0 199 131 328 311 328s310 -129 310 -328c0 -198 -130 -328 -310 -328zM360 649c-174 0 -260 -124 -260 -284s86 -285 260 -285c173 0 259 125 259 285s-86 284 -259 284zM489 210h-63l-65 117h-55v-117h-62v321h118
c67 0 110 -22 110 -100c0 -35 -21 -65 -54 -87zM348 482h-42v-99h40c48 0 61 22 61 50c0 30 -13 49 -59 49z" />
    <glyph glyph-name="ring" unicode="&#x2da;" horiz-adv-x="292" 
d="M146 576c-69 0 -104 43 -104 89s36 90 104 90c69 0 104 -44 104 -90s-34 -89 -104 -89zM146 724c-32 0 -60 -24 -60 -59c0 -37 29 -60 60 -60s60 23 60 60c0 35 -28 59 -60 59z" />
    <glyph glyph-name="s" unicode="s" horiz-adv-x="414" 
d="M200 -10c-87 0 -145 27 -168 43l11 87c21 -19 78 -50 153 -50c63 0 98 22 98 61c0 51 -58 70 -98 81c-67 18 -154 42 -154 141c0 75 50 147 184 147c65 0 103 -17 133 -32l-11 -82c-29 24 -65 43 -120 43c-56 0 -95 -20 -95 -66s37 -58 114 -81c48 -14 140 -44 140 -146
c0 -65 -37 -146 -187 -146z" />
    <glyph glyph-name="scaron" unicode="&#x161;" horiz-adv-x="414" 
d="M200 -10c-87 0 -145 27 -168 43l11 87c21 -19 78 -50 153 -50c63 0 98 22 98 61c0 51 -58 70 -98 81c-67 18 -154 42 -154 141c0 75 50 147 184 147c65 0 103 -17 133 -32l-11 -82c-29 24 -65 43 -120 43c-56 0 -95 -20 -95 -66s37 -58 114 -81c48 -14 140 -44 140 -146
c0 -65 -37 -146 -187 -146zM346 699l-147 -99l-147 99v41l147 -76l147 76v-41z" />
    <glyph glyph-name="section" unicode="&#xa7;" horiz-adv-x="456" 
d="M315 188c58 -45 59 -74 59 -119c0 -70 -41 -153 -168 -153c-58 0 -117 17 -143 39l13 63c38 -23 84 -41 131 -41c60 0 103 26 103 83c0 143 -273 58 -273 270c0 51 16 121 109 149c-58 42 -64 76 -64 108c0 83 42 163 165 163c63 0 118 -21 147 -40l-13 -63
c-37 23 -85 43 -130 43c-60 0 -97 -39 -97 -86c0 -125 265 -68 265 -273c0 -45 -20 -108 -104 -143zM204 438c-24 -1 -99 -20 -99 -96c0 -65 73 -100 162 -123c48 13 78 56 78 105c0 78 -98 104 -141 114z" />
    <glyph glyph-name="semicolon" unicode=";" horiz-adv-x="216" 
d="M158 354h-100v86h100v-86zM158 -1l-78 -108l-23 13l35 87l-34 9v86h100v-87z" />
    <glyph glyph-name="seven" unicode="7" horiz-adv-x="502" 
d="M492 700l-303 -700h-100l265 614h-315v86h453z" />
    <glyph glyph-name="seveninferior" unicode="&#x2087;" horiz-adv-x="332" 
d="M309 378l-170 -378h-77l139 308h-159v70h267z" />
    <glyph glyph-name="sevensuperior" unicode="&#x2077;" horiz-adv-x="290" 
d="M290 698l-170 -378h-77l139 308h-159v70h267z" />
    <glyph glyph-name="six" unicode="6" horiz-adv-x="568" 
d="M281 -14c-121 0 -219 67 -219 254c0 263 188 458 300 460l65 -38c-96 -44 -209 -107 -256 -305c37 50 88 63 141 63c114 0 212 -64 212 -202c0 -129 -94 -232 -243 -232zM303 339c-76 0 -141 -54 -141 -138c0 -92 64 -132 131 -132c90 0 134 73 134 145
c0 53 -24 125 -124 125z" />
    <glyph glyph-name="sixinferior" unicode="&#x2086;" horiz-adv-x="347" 
d="M171 -8c-70 0 -126 40 -126 146c0 141 119 240 174 240l49 -28c-41 0 -136 -82 -145 -142c16 17 49 19 68 19c68 0 122 -36 122 -109c0 -66 -55 -126 -142 -126zM186 169c-39 0 -69 -18 -69 -59c0 -35 34 -53 62 -53c40 0 65 29 65 63c0 22 -17 49 -58 49z" />
    <glyph glyph-name="sixsuperior" unicode="&#x2076;" horiz-adv-x="322" 
d="M158 312c-70 0 -126 40 -126 146c0 141 119 240 174 240l49 -28c-41 0 -136 -82 -145 -142c16 17 49 19 68 19c68 0 122 -36 122 -109c0 -66 -55 -126 -142 -126zM173 489c-39 0 -69 -18 -69 -59c0 -35 34 -53 62 -53c40 0 65 29 65 63c0 22 -17 49 -58 49z" />
    <glyph glyph-name="slash" unicode="/" horiz-adv-x="532" 
d="M497 700l-378 -785h-100l378 785h100z" />
    <glyph glyph-name="space" unicode=" " horiz-adv-x="225" 
 />
    <glyph glyph-name="sterling" unicode="&#xa3;" horiz-adv-x="500" 
d="M447 618l-29 -38c-19 38 -35 65 -91 65c-85 0 -100 -63 -100 -157v-103h197l-12 -59h-189c-7 -100 -15 -148 -63 -254h280v-72h-406c68 94 94 192 108 326h-95l11 59h88v125c0 99 19 196 159 196c86 0 124 -36 142 -88z" />
    <glyph glyph-name="t" unicode="t" horiz-adv-x="337" 
d="M318 62l-7 -72h-81c-93 0 -128 58 -128 117v313h-84l8 70h76v121l90 9v-130h129v-70h-129v-258c0 -94 6 -100 103 -100h23z" />
    <glyph glyph-name="thorn" unicode="&#xfe;" horiz-adv-x="580" 
d="M302 -10c-67 0 -119 22 -152 66v-297h-90v991h90v-312c43 43 96 62 158 62c151 0 240 -117 240 -255c0 -137 -87 -255 -246 -255zM294 420c-109 0 -151 -74 -151 -175s42 -183 151 -183c107 0 163 78 163 183c0 104 -56 175 -163 175z" />
    <glyph glyph-name="three" unicode="3" horiz-adv-x="547" 
d="M230 -14c-92 0 -175 38 -190 53l23 88c60 -33 103 -55 168 -55c67 0 149 29 149 141c0 66 -28 130 -166 130h-73l10 76h37c126 0 167 43 167 115c0 66 -42 94 -119 94c-68 0 -111 -21 -135 -41l-17 81c16 16 68 46 162 46c175 0 213 -103 213 -180
c0 -53 -20 -97 -91 -146c92 -31 116 -107 116 -174c0 -154 -125 -228 -254 -228z" />
    <glyph glyph-name="threeinferior" unicode="&#x2083;" horiz-adv-x="337" 
d="M142 -8c-51 0 -101 20 -109 30l18 66c17 -14 54 -26 88 -26c41 0 78 13 78 52c0 34 -12 64 -74 64h-52l6 55h27c60 0 77 23 77 48s-17 44 -60 44c-26 0 -55 -4 -71 -17l-11 53c12 11 47 25 91 25c105 0 126 -61 126 -101c0 -34 -13 -60 -39 -75c35 -20 54 -49 54 -93
c0 -83 -74 -125 -149 -125z" />
    <glyph glyph-name="threequarters" unicode="&#xbe;" horiz-adv-x="885" 
d="M708 700l-378 -785h-100l378 785h100zM141 312c-51 0 -101 20 -109 30l18 66c17 -14 54 -26 88 -26c41 0 78 13 78 52c0 34 -12 64 -74 64h-52l6 55h27c60 0 77 23 77 48s-17 44 -60 44c-26 0 -55 -4 -71 -17l-11 53c12 11 47 25 91 25c105 0 126 -61 126 -101
c0 -34 -13 -60 -39 -75c35 -20 54 -49 54 -93c0 -83 -74 -125 -149 -125zM850 103h-49v-103h-74v103h-175l187 275h62v-218h49v-57zM727 160v110l-74 -110h74z" />
    <glyph glyph-name="threesuperior" unicode="&#xb3;" horiz-adv-x="310" 
d="M128 312c-51 0 -101 20 -109 30l18 66c17 -14 54 -26 88 -26c41 0 78 13 78 52c0 34 -12 64 -74 64h-52l6 55h27c60 0 77 23 77 48s-17 44 -60 44c-26 0 -55 -4 -71 -17l-11 53c12 11 47 25 91 25c105 0 126 -61 126 -101c0 -34 -13 -60 -39 -75c35 -20 54 -49 54 -93
c0 -83 -74 -125 -149 -125z" />
    <glyph glyph-name="tilde" unicode="&#x2dc;" horiz-adv-x="528" 
d="M331 599c-37 0 -100 51 -132 51c-38 0 -60 -19 -71 -49l-36 9c16 66 68 90 103 90c41 0 105 -49 140 -49c32 0 52 19 69 51l34 -9c-15 -58 -57 -94 -107 -94z" />
    <glyph glyph-name="trademark" unicode="&#x2122;" horiz-adv-x="727" 
d="M489 443h-6l-92 163l-33 -269h-52l47 363h29l105 -179l104 179h29l48 -363h-54l-31 268zM290 700l-6 -50h-100v-313h-51v313h-102v50h259z" />
    <glyph glyph-name="two" unicode="2" horiz-adv-x="524" 
d="M470 0h-414c263 376 291 458 291 512c0 73 -49 113 -122 113c-85 0 -134 -55 -163 -93l-12 85c11 21 77 97 199 97c147 0 194 -104 194 -192c0 -93 -58 -213 -215 -436h242v-86z" />
    <glyph glyph-name="twoinferior" unicode="&#x2082;" horiz-adv-x="332" 
d="M286 0h-248c150 202 164 246 164 273c0 33 -21 53 -57 53c-50 0 -81 -42 -93 -59l-9 65c11 20 51 54 117 54c86 0 112 -57 112 -102c0 -49 -31 -110 -106 -214h120v-70z" />
    <glyph glyph-name="twosuperior" unicode="&#xb2;" horiz-adv-x="304" 
d="M273 320h-248c150 202 164 246 164 273c0 33 -21 53 -57 53c-50 0 -81 -42 -93 -59l-9 65c11 20 51 54 117 54c86 0 112 -57 112 -102c0 -49 -31 -110 -106 -214h120v-70z" />
    <glyph glyph-name="u" unicode="u" horiz-adv-x="524" 
d="M463 0h-80l-10 54c-31 -43 -72 -64 -136 -64c-115 0 -181 68 -181 215v285h90v-260c0 -104 33 -160 114 -160c45 0 89 17 113 56v364h90v-490z" />
    <glyph glyph-name="uacute" unicode="&#xfa;" horiz-adv-x="524" 
d="M463 0h-80l-10 54c-31 -43 -72 -64 -136 -64c-115 0 -181 68 -181 215v285h90v-260c0 -104 33 -160 114 -160c45 0 89 17 113 56v364h90v-490zM372 660l-187 -64v41l187 95v-72z" />
    <glyph glyph-name="ucircumflex" unicode="&#xfb;" horiz-adv-x="524" 
d="M463 0h-80l-10 54c-31 -43 -72 -64 -136 -64c-115 0 -181 68 -181 215v285h90v-260c0 -104 33 -160 114 -160c45 0 89 17 113 56v364h90v-490zM426 603l-147 82l-147 -82v36l147 106l147 -106v-36z" />
    <glyph glyph-name="udieresis" unicode="&#xfc;" horiz-adv-x="524" 
d="M463 0h-80l-10 54c-31 -43 -72 -64 -136 -64c-115 0 -181 68 -181 215v285h90v-260c0 -104 33 -160 114 -160c45 0 89 17 113 56v364h90v-490zM403 600h-70v100h70v-100zM225 600h-70v100h70v-100z" />
    <glyph glyph-name="ugrave" unicode="&#xf9;" horiz-adv-x="524" 
d="M463 0h-80l-10 54c-31 -43 -72 -64 -136 -64c-115 0 -181 68 -181 215v285h90v-260c0 -104 33 -160 114 -160c45 0 89 17 113 56v364h90v-490zM372 596l-187 64v72l187 -95v-41z" />
    <glyph glyph-name="underscore" unicode="_" horiz-adv-x="566" 
d="M563 -122h-560v86h560v-86z" />
    <glyph glyph-name="uni00AD" unicode="&#xad;" horiz-adv-x="424" 
d="M367 230h-310v94h310v-94z" />
    <glyph glyph-name="v" unicode="v" horiz-adv-x="492" 
d="M483 490l-186 -490h-101l-187 490h100l137 -391l136 391h101z" />
    <glyph glyph-name="w" unicode="w" horiz-adv-x="725" 
d="M714 490l-148 -490h-101l-102 362l-103 -362h-101l-147 490h106l94 -391l104 376h93l105 -376l94 391h106z" />
    <glyph glyph-name="x" unicode="x" horiz-adv-x="474" 
d="M463 0h-101l-124 193l-126 -193h-101l171 244l-167 246h101l123 -194l113 194h105l-161 -238z" />
    <glyph glyph-name="y" unicode="y" horiz-adv-x="505" 
d="M498 490l-300 -732h-100l113 264l-204 468h100l153 -364l138 364h100z" />
    <glyph glyph-name="yacute" unicode="&#xfd;" horiz-adv-x="505" 
d="M498 490l-300 -732h-100l113 264l-204 468h100l153 -364l138 364h100zM345 660l-187 -64v41l187 95v-72z" />
    <glyph glyph-name="ydieresis" unicode="&#xff;" horiz-adv-x="505" 
d="M498 490l-300 -732h-100l113 264l-204 468h100l153 -364l138 364h100zM375 600h-70v100h70v-100zM197 600h-70v100h70v-100z" />
    <glyph glyph-name="yen" unicode="&#xa5;" horiz-adv-x="674" 
d="M646 700l-259 -384h168l-22 -50h-147v-66h169l-22 -54h-147v-146h-96v146h-178l21 54h157v66h-178l21 50h156l-259 384h93l215 -307l215 307h93z" />
    <glyph glyph-name="z" unicode="z" horiz-adv-x="471" 
d="M446 490l-261 -420h256v-70h-419l261 420h-251v70h414z" />
    <glyph glyph-name="zcaron" unicode="&#x17e;" horiz-adv-x="471" 
d="M446 490l-261 -420h256v-70h-419l261 420h-251v70h414zM384 699l-147 -99l-147 99v41l147 -76l147 76v-41z" />
    <glyph glyph-name="zero" unicode="0" horiz-adv-x="714" 
d="M351 -14c-171 0 -288 137 -288 352c0 227 133 376 300 376c164 0 288 -143 288 -357c0 -227 -121 -371 -300 -371zM361 628c-103 0 -197 -96 -197 -290c0 -180 78 -266 189 -266c117 0 199 90 199 285c0 179 -87 271 -191 271z" />
    <glyph glyph-name="zeroinferior" unicode="&#x2080;" horiz-adv-x="431" 
d="M212 -8c-100 0 -167 77 -167 191c0 120 76 203 174 203c96 0 167 -80 167 -194c0 -119 -69 -200 -174 -200zM218 322c-49 0 -99 -43 -99 -139c0 -89 41 -126 94 -126c57 0 100 39 100 135c0 89 -46 130 -95 130z" />
    <glyph glyph-name="zerosuperior" unicode="&#x2070;" horiz-adv-x="407" 
d="M200 312c-100 0 -167 77 -167 191c0 120 76 203 174 203c96 0 167 -80 167 -194c0 -119 -69 -200 -174 -200zM206 642c-49 0 -99 -43 -99 -139c0 -89 41 -126 94 -126c57 0 100 39 100 135c0 89 -46 130 -95 130z" />
    </font>
</defs>
</svg>
