<?xml version="1.0" standalone="no"?>
<!DOCTYPE svg PUBLIC "-//W3C//DTD SVG 1.1//EN" "http://www.w3.org/Graphics/SVG/1.1/DTD/svg11.dtd" >
<svg>
<metadata>
Created by FontForge 20120731 at Wed Aug 17 09:03:25 2016
 By www
Copyright (c) 2011 by Pablo Impallari. www.impallari.com Copyright (c) 2011 by Igino Marini. www.ikern.com All rights reserved.
</metadata>
<defs>
<font id="Cabin-SemiBold" horiz-adv-x="234" >
  <font-face 
    font-family="Cabin"
    font-weight="600"
    font-stretch="normal"
    units-per-em="1000"
    panose-1="2 11 8 3 5 2 2 2 0 4"
    ascent="800"
    descent="-200"
    x-height="497"
    cap-height="700"
    bbox="-34 -250 1170 958"
    underline-thickness="50"
    underline-position="-50"
    stemh="617"
    stemv="113"
    unicode-range="U+0020-2122"
  />
<missing-glyph horiz-adv-x="250" 
d="M174 243h-114v124h114v-124z" />
    <glyph glyph-name=".notdef" horiz-adv-x="250" 
d="M174 243h-114v124h114v-124z" />
    <glyph glyph-name="A" unicode="A" horiz-adv-x="624" 
d="M619 0h-123l-62 175h-244l-62 -175h-123l249 700h115zM394 287l-83 233l-82 -233h165z" />
    <glyph glyph-name="A.sc" horiz-adv-x="550" 
d="M545 0h-117l-53 134h-200l-51 -134h-119l217 574h107zM336 244l-61 149l-61 -149h122z" />
    <glyph glyph-name="AE" unicode="&#xc6;" horiz-adv-x="868" 
d="M832 0h-436v172h-200l-85 -172h-120l341 700h491v-112h-301v-167h232v-112h-232v-197h310v-112zM396 286v299l-146 -299h146z" />
    <glyph glyph-name="AE.sc" horiz-adv-x="762" 
d="M727 0h-379v136h-168l-70 -136h-119l297 574h431v-110h-256v-110h197v-109h-197v-135h264v-110zM348 245v217l-115 -217h115z" />
    <glyph glyph-name="Aacute" unicode="&#xc1;" horiz-adv-x="624" 
d="M619 0h-123l-62 175h-244l-62 -175h-123l249 700h115zM394 287l-83 233l-82 -233h165zM405 853l-187 -62v64l187 92v-94z" />
    <glyph glyph-name="Acircumflex" unicode="&#xc2;" horiz-adv-x="624" 
d="M619 0h-123l-62 175h-244l-62 -175h-123l249 700h115zM394 287l-83 233l-82 -233h165zM459 794l-147 74l-147 -74v62l147 95l147 -95v-62z" />
    <glyph glyph-name="Adieresis" unicode="&#xc4;" horiz-adv-x="624" 
d="M619 0h-123l-62 175h-244l-62 -175h-123l249 700h115zM394 287l-83 233l-82 -233h165zM436 799h-89v104h89v-104zM277 799h-89v104h89v-104z" />
    <glyph glyph-name="Agrave" unicode="&#xc0;" horiz-adv-x="624" 
d="M619 0h-123l-62 175h-244l-62 -175h-123l249 700h115zM394 287l-83 233l-82 -233h165zM405 791l-187 62v94l187 -92v-64z" />
    <glyph glyph-name="Aring" unicode="&#xc5;" horiz-adv-x="624" 
d="M619 0h-123l-62 175h-244l-62 -175h-123l249 700h115zM394 287l-83 233l-82 -233h165zM312 779c-66 0 -104 41 -104 89s39 90 104 90c66 0 104 -42 104 -90s-37 -89 -104 -89zM312 915c-27 0 -49 -20 -49 -47c0 -29 22 -47 49 -47s49 18 49 47c0 27 -22 47 -49 47z" />
    <glyph glyph-name="Atilde" unicode="&#xc3;" horiz-adv-x="624" 
d="M619 0h-123l-62 175h-244l-62 -175h-123l249 700h115zM394 287l-83 233l-82 -233h165zM380 802c-49 0 -92 45 -128 45c-33 0 -49 -25 -56 -48l-68 17c10 66 69 98 118 98c54 0 88 -44 125 -44c31 0 53 24 61 48l63 -16c-11 -53 -53 -100 -115 -100z" />
    <glyph glyph-name="B" unicode="B" horiz-adv-x="617" 
d="M338 0h-260v700h179c162 0 267 -25 267 -178c0 -62 -13 -107 -59 -148c85 -33 121 -83 121 -167c0 -168 -131 -207 -248 -207zM301 598h-106v-182h123c43 0 93 12 93 91c0 78 -45 91 -110 91zM333 320h-138v-218h118c92 0 151 21 151 107c0 87 -58 111 -131 111z" />
    <glyph glyph-name="B.sc" horiz-adv-x="559" 
d="M309 0h-238v574h167c140 0 233 -20 233 -149c0 -53 -16 -95 -51 -118c70 -24 107 -62 107 -139c0 -129 -116 -168 -218 -168zM285 480h-100v-134h109c30 0 73 15 73 61c0 56 -32 73 -82 73zM299 260h-114v-165h112c69 0 112 23 112 83c0 62 -47 82 -110 82z" />
    <glyph glyph-name="C" unicode="C" horiz-adv-x="613" 
d="M384 -14c-201 0 -347 143 -347 364s146 364 347 364c72 0 147 -17 197 -41l-13 -111c-57 21 -112 41 -184 41c-144 0 -218 -108 -218 -253s74 -253 218 -253c72 0 127 19 184 41l13 -111c-51 -25 -125 -41 -197 -41z" />
    <glyph glyph-name="C.sc" horiz-adv-x="541" 
d="M335 -12c-174 0 -300 119 -300 300c0 179 126 298 300 298c64 0 129 -13 173 -34l-12 -107c-51 20 -97 32 -161 32c-117 0 -176 -78 -176 -189c0 -112 59 -190 175 -190c65 0 111 12 162 32l12 -108c-44 -21 -109 -34 -173 -34z" />
    <glyph glyph-name="Ccedilla" unicode="&#xc7;" horiz-adv-x="613" 
d="M384 -14c-201 0 -347 143 -347 364s146 364 347 364c72 0 147 -17 197 -41l-13 -111c-57 21 -112 41 -184 41c-144 0 -218 -108 -218 -253s74 -253 218 -253c72 0 127 19 184 41l13 -111c-51 -25 -125 -41 -197 -41zM387 -53l-96 -133l-65 -7l69 132z" />
    <glyph glyph-name="D" unicode="D" horiz-adv-x="723" 
d="M339 0h-261v700h261c201 0 346 -130 346 -350s-145 -350 -346 -350zM339 589h-143v-478h143c144 0 217 94 217 239s-73 239 -217 239z" />
    <glyph glyph-name="D.sc" horiz-adv-x="636" 
d="M300 0h-229v574h229c174 0 299 -106 299 -286c0 -181 -125 -288 -299 -288zM300 465h-115v-356h115c116 0 175 67 175 179c0 110 -59 177 -175 177z" />
    <glyph glyph-name="E" unicode="E" horiz-adv-x="564" 
d="M529 0h-451v700h441v-112h-321v-167h251v-112h-251v-197h331v-112z" />
    <glyph glyph-name="E.sc" horiz-adv-x="506" 
d="M471 0h-400v574h392v-110h-275v-110h213v-109h-213v-135h283v-110z" />
    <glyph glyph-name="Eacute" unicode="&#xc9;" horiz-adv-x="564" 
d="M529 0h-451v700h441v-112h-321v-167h251v-112h-251v-197h331v-112zM368 853l-187 -62v64l187 92v-94z" />
    <glyph glyph-name="Ecircumflex" unicode="&#xca;" horiz-adv-x="564" 
d="M529 0h-451v700h441v-112h-321v-167h251v-112h-251v-197h331v-112zM421 794l-147 74l-147 -74v62l147 95l147 -95v-62z" />
    <glyph glyph-name="Edieresis" unicode="&#xcb;" horiz-adv-x="564" 
d="M529 0h-451v700h441v-112h-321v-167h251v-112h-251v-197h331v-112zM398 799h-89v104h89v-104zM239 799h-89v104h89v-104z" />
    <glyph glyph-name="Egrave" unicode="&#xc8;" horiz-adv-x="564" 
d="M529 0h-451v700h441v-112h-321v-167h251v-112h-251v-197h331v-112zM368 791l-187 62v94l187 -92v-64z" />
    <glyph glyph-name="Eth" unicode="&#xd0;" horiz-adv-x="732" 
d="M349 0h-260v303h-94v85h94v312h260c200 0 345 -130 345 -350s-145 -350 -345 -350zM349 589h-144v-201h125v-85h-125v-191h144c144 0 217 92 217 238s-73 239 -217 239z" />
    <glyph glyph-name="Euro" unicode="&#x20ac;" horiz-adv-x="704" 
d="M469 17c-135 0 -245 72 -294 194h-143l28 81h94c-2 20 -3 39 -3 58v17h-90l27 76h73c37 149 156 240 308 240c63 0 129 -12 180 -36l-14 -108c-53 22 -102 39 -166 39c-96 0 -154 -52 -179 -135h253l-28 -76h-238v-17c0 -20 1 -39 5 -58h241l-28 -81h-187
c33 -58 86 -89 161 -89c64 0 113 17 166 39l14 -108c-51 -24 -117 -36 -180 -36z" />
    <glyph glyph-name="F" unicode="F" horiz-adv-x="525" 
d="M508 588h-312v-167h241v-112h-241v-309h-118v700h430v-112z" />
    <glyph glyph-name="F.sc" horiz-adv-x="467" 
d="M447 464h-262v-110h202v-109h-202v-245h-114v574h376v-110z" />
    <glyph glyph-name="G" unicode="G" horiz-adv-x="668" 
d="M379 -14c-195 0 -342 143 -342 365c0 220 145 363 350 363c68 0 157 -16 209 -41l-12 -110c-56 22 -132 40 -194 40c-154 0 -224 -109 -224 -251c0 -148 76 -255 233 -255c29 0 67 4 102 14v140h-87v100h205v-312c-52 -29 -160 -53 -240 -53z" />
    <glyph glyph-name="G.sc" horiz-adv-x="587" 
d="M333 -12c-171 0 -298 119 -298 300c0 179 125 298 303 298c60 0 139 -13 183 -34l-12 -109c-47 19 -114 34 -168 34c-125 0 -182 -79 -182 -187c0 -114 63 -192 186 -192c25 0 53 3 82 7v91h-64v92h178v-256c-44 -24 -139 -44 -208 -44z" />
    <glyph glyph-name="H" unicode="H" horiz-adv-x="742" 
d="M664 0h-118v309h-350v-309h-118v700h118v-278h350v278h118v-700z" />
    <glyph glyph-name="H.sc" horiz-adv-x="652" 
d="M581 0h-114v245h-282v-245h-114v574h114v-220h282v220h114v-574z" />
    <glyph glyph-name="I" unicode="I" horiz-adv-x="274" 
d="M196 0h-118v700h118v-700z" />
    <glyph glyph-name="I.sc" horiz-adv-x="256" 
d="M185 0h-114v574h114v-574z" />
    <glyph glyph-name="Iacute" unicode="&#xcd;" horiz-adv-x="274" 
d="M196 0h-118v700h118v-700zM231 853l-187 -62v64l187 92v-94z" />
    <glyph glyph-name="Icircumflex" unicode="&#xce;" horiz-adv-x="274" 
d="M196 0h-118v700h118v-700zM284 794l-147 74l-147 -74v62l147 95l147 -95v-62z" />
    <glyph glyph-name="Idieresis" unicode="&#xcf;" horiz-adv-x="274" 
d="M196 0h-118v700h118v-700zM261 799h-89v104h89v-104zM102 799h-89v104h89v-104z" />
    <glyph glyph-name="Igrave" unicode="&#xcc;" horiz-adv-x="274" 
d="M196 0h-118v700h118v-700zM231 791l-187 62v94l187 -92v-64z" />
    <glyph glyph-name="J" unicode="J" horiz-adv-x="273" 
d="M32 -172h-30l-10 84h20c51 0 66 28 66 90v698h117v-726c0 -97 -58 -146 -163 -146z" />
    <glyph glyph-name="J.sc" horiz-adv-x="256" 
d="M45 -141h-33l-9 88h25c32 0 43 18 43 57v570h114v-592c0 -84 -55 -123 -140 -123z" />
    <glyph glyph-name="K" unicode="K" horiz-adv-x="608" 
d="M604 0h-130l-249 370l249 330h130l-248 -330zM196 0h-118v700h118v-700z" />
    <glyph glyph-name="K.sc" horiz-adv-x="555" 
d="M546 0h-128l-212 304l212 270h128l-212 -270zM185 0h-114v574h114v-574z" />
    <glyph glyph-name="L" unicode="L" horiz-adv-x="502" 
d="M494 0h-416v700h118v-588h298v-112z" />
    <glyph glyph-name="L.sc" horiz-adv-x="445" 
d="M433 0h-362v574h114v-464h248v-110z" />
    <glyph glyph-name="M" unicode="M" horiz-adv-x="826" 
d="M781 0h-123l-62 488l-182 -335l-184 334l-62 -487h-123l96 700h98l175 -328l173 328h98z" />
    <glyph glyph-name="M.sc" horiz-adv-x="737" 
d="M694 0h-119l-52 371l-155 -255l-155 255l-52 -371h-118l84 574h93l149 -255l147 255h93z" />
    <glyph glyph-name="N" unicode="N" horiz-adv-x="706" 
d="M628 0h-97l-335 503v-503h-118v700h119l313 -474v474h118v-700z" />
    <glyph glyph-name="N.sc" horiz-adv-x="625" 
d="M554 0h-94l-275 378v-378h-114v574h111l258 -355v355h114v-574z" />
    <glyph glyph-name="Ntilde" unicode="&#xd1;" horiz-adv-x="706" 
d="M628 0h-97l-335 503v-503h-118v700h119l313 -474v474h118v-700zM421 802c-49 0 -92 45 -128 45c-33 0 -49 -25 -56 -48l-68 17c10 66 69 98 118 98c54 0 88 -44 125 -44c31 0 53 24 61 48l63 -16c-11 -53 -53 -100 -115 -100z" />
    <glyph glyph-name="O" unicode="O" horiz-adv-x="764" 
d="M382 -14c-200 0 -345 143 -345 364s145 364 345 364s345 -143 345 -364s-145 -364 -345 -364zM382 603c-143 0 -216 -108 -216 -253s73 -253 216 -253s216 108 216 253s-73 253 -216 253z" />
    <glyph glyph-name="O.sc" horiz-adv-x="670" 
d="M335 -12c-174 0 -300 119 -300 300c0 179 126 298 300 298s300 -119 300 -298c0 -181 -126 -300 -300 -300zM335 477c-116 0 -176 -78 -176 -189c0 -112 60 -190 176 -190c117 0 175 78 175 190c0 111 -58 189 -175 189z" />
    <glyph glyph-name="OE" unicode="&#x152;" horiz-adv-x="1067" 
d="M1031 0h-428v64c-69 -53 -141 -78 -223 -78c-199 0 -343 143 -343 364s144 364 343 364c82 0 154 -25 223 -78v64h419v-112h-300v-167h231v-112h-231v-197h309v-112zM380 603c-144 0 -215 -108 -215 -253s71 -253 215 -253c143 0 215 108 215 253s-72 253 -215 253z" />
    <glyph glyph-name="OE.sc" horiz-adv-x="935" 
d="M900 0h-381v39c-48 -30 -112 -51 -183 -51c-174 0 -301 119 -301 300c0 179 127 298 301 298c71 0 135 -21 183 -50v38h373v-110h-256v-110h197v-109h-197v-135h264v-110zM336 477c-117 0 -177 -79 -177 -189c0 -112 60 -190 177 -190c116 0 176 78 176 190
c0 110 -60 189 -176 189z" />
    <glyph glyph-name="Oacute" unicode="&#xd3;" horiz-adv-x="764" 
d="M382 -14c-200 0 -345 143 -345 364s145 364 345 364s345 -143 345 -364s-145 -364 -345 -364zM382 603c-143 0 -216 -108 -216 -253s73 -253 216 -253s216 108 216 253s-73 253 -216 253zM475 853l-187 -62v64l187 92v-94z" />
    <glyph glyph-name="Ocircumflex" unicode="&#xd4;" horiz-adv-x="764" 
d="M382 -14c-200 0 -345 143 -345 364s145 364 345 364s345 -143 345 -364s-145 -364 -345 -364zM382 603c-143 0 -216 -108 -216 -253s73 -253 216 -253s216 108 216 253s-73 253 -216 253zM529 794l-147 74l-147 -74v62l147 95l147 -95v-62z" />
    <glyph glyph-name="Odieresis" unicode="&#xd6;" horiz-adv-x="764" 
d="M382 -14c-200 0 -345 143 -345 364s145 364 345 364s345 -143 345 -364s-145 -364 -345 -364zM382 603c-143 0 -216 -108 -216 -253s73 -253 216 -253s216 108 216 253s-73 253 -216 253zM506 799h-89v104h89v-104zM347 799h-89v104h89v-104z" />
    <glyph glyph-name="Ograve" unicode="&#xd2;" horiz-adv-x="764" 
d="M382 -14c-200 0 -345 143 -345 364s145 364 345 364s345 -143 345 -364s-145 -364 -345 -364zM382 603c-143 0 -216 -108 -216 -253s73 -253 216 -253s216 108 216 253s-73 253 -216 253zM475 791l-187 62v94l187 -92v-64z" />
    <glyph glyph-name="Oslash" unicode="&#xd8;" horiz-adv-x="764" 
d="M382 -13c-59 0 -114 12 -166 38l-38 -56h-121l78 114c-63 68 -98 158 -98 267c0 221 145 364 345 364c57 0 110 -12 161 -36l27 38h121l-67 -97c66 -66 103 -158 103 -269c0 -220 -145 -363 -345 -363zM553 516l-271 -397c33 -14 65 -20 100 -20c143 0 215 107 215 252
c0 60 -12 120 -44 165zM382 602c-143 0 -215 -107 -215 -252c0 -59 11 -111 41 -162l269 394c-32 13 -61 20 -95 20z" />
    <glyph glyph-name="Otilde" unicode="&#xd5;" horiz-adv-x="764" 
d="M382 -14c-200 0 -345 143 -345 364s145 364 345 364s345 -143 345 -364s-145 -364 -345 -364zM382 603c-143 0 -216 -108 -216 -253s73 -253 216 -253s216 108 216 253s-73 253 -216 253zM451 802c-49 0 -92 45 -128 45c-33 0 -49 -25 -56 -48l-68 17c10 66 69 98 118 98
c54 0 88 -44 125 -44c31 0 53 24 61 48l63 -16c-11 -53 -53 -100 -115 -100z" />
    <glyph glyph-name="P" unicode="P" horiz-adv-x="589" 
d="M331 235h-134v-235h-119v700h206c174 0 283 -30 283 -221c0 -195 -139 -244 -236 -244zM303 600h-106v-256h116c95 0 133 39 133 133c0 87 -31 123 -143 123z" />
    <glyph glyph-name="P.sc" horiz-adv-x="531" 
d="M292 185h-107v-185h-114v574h170c174 0 266 -24 266 -182c0 -170 -129 -207 -215 -207zM276 482h-91v-191h92c81 0 115 22 115 100c0 62 -24 91 -116 91z" />
    <glyph glyph-name="Q" unicode="Q" horiz-adv-x="764" 
d="M723 74l-67 -80l-68 56c-59 -43 -129 -64 -206 -64c-200 0 -345 143 -345 364s145 364 345 364s345 -143 345 -364c0 -86 -23 -162 -66 -226zM382 603c-144 0 -216 -108 -216 -253s72 -253 216 -253c41 0 83 8 116 29l-90 75l66 80l94 -80c26 47 33 97 33 149
c0 145 -75 253 -219 253z" />
    <glyph glyph-name="Q.sc" horiz-adv-x="671" 
d="M637 68l-67 -79l-60 48c-47 -32 -108 -49 -175 -49c-174 0 -300 119 -300 300c0 179 126 298 300 298s300 -119 300 -298c0 -71 -20 -132 -53 -177zM335 477c-116 0 -176 -78 -176 -189c0 -113 60 -190 176 -190c34 0 60 6 83 15l-72 55l67 79l75 -56c14 24 22 57 22 97
c0 111 -58 189 -175 189z" />
    <glyph glyph-name="R" unicode="R" horiz-adv-x="619" 
d="M604 0h-123l-148 264h-136v-264h-119v700h247c138 0 241 -49 241 -203c0 -101 -51 -162 -121 -202zM305 602h-108v-227h112c96 0 134 42 134 116c0 70 -33 111 -138 111z" />
    <glyph glyph-name="R.sc" horiz-adv-x="559" 
d="M540 0h-118l-125 211h-112v-211h-114v574h226c116 0 209 -41 209 -164c0 -94 -46 -135 -103 -170zM269 480h-84v-165h77c106 0 125 41 125 85c0 50 -21 80 -118 80z" />
    <glyph glyph-name="S" unicode="S" horiz-adv-x="583" 
d="M280 -14c-105 0 -190 24 -231 49l15 135c40 -36 117 -73 219 -73c78 0 138 23 138 86c0 74 -78 100 -168 130c-105 35 -214 70 -214 193c0 92 63 208 253 208c94 0 185 -29 222 -52l-12 -122c-73 39 -136 63 -204 63c-60 0 -137 -19 -137 -83c0 -59 66 -82 144 -106
c113 -34 247 -73 247 -227c0 -78 -34 -201 -272 -201z" />
    <glyph glyph-name="S.sc" horiz-adv-x="517" 
d="M250 -12c-93 0 -168 21 -203 43l13 128c33 -31 100 -61 193 -61c64 0 105 13 105 55c0 53 -68 75 -141 99c-85 27 -178 56 -178 160c0 78 56 174 220 174c84 0 163 -26 194 -46l-11 -114c-65 35 -121 52 -179 52c-46 0 -109 -8 -109 -54c0 -45 57 -62 122 -80
c94 -26 209 -60 209 -186c0 -67 -31 -170 -235 -170z" />
    <glyph glyph-name="Scaron" unicode="&#x160;" horiz-adv-x="583" 
d="M280 -14c-105 0 -190 24 -231 49l15 135c40 -36 117 -73 219 -73c78 0 138 23 138 86c0 74 -78 100 -168 130c-105 35 -214 70 -214 193c0 92 63 208 253 208c94 0 185 -29 222 -52l-12 -122c-73 39 -136 63 -204 63c-60 0 -137 -19 -137 -83c0 -59 66 -82 144 -106
c113 -34 247 -73 247 -227c0 -78 -34 -201 -272 -201zM438 886l-147 -93l-147 93v64l147 -73l147 73v-64z" />
    <glyph glyph-name="T" unicode="T" horiz-adv-x="554" 
d="M536 588h-200v-588h-118v588h-200v112h518v-112z" />
    <glyph glyph-name="T.sc" horiz-adv-x="492" 
d="M475 464h-171v-464h-115v464h-172v110h458v-110z" />
    <glyph glyph-name="Thorn" unicode="&#xde;" horiz-adv-x="567" 
d="M250 197h-53v-197h-119v700h119v-134h53c195 0 298 -24 298 -176c0 -146 -96 -193 -298 -193zM284 481h-87v-201h87c107 0 145 38 145 104c0 69 -37 97 -145 97z" />
    <glyph glyph-name="U" unicode="U" horiz-adv-x="720" 
d="M360 -14c-197 0 -290 122 -290 313v401h118v-357c0 -132 27 -246 172 -246s172 114 172 246v357h118v-401c0 -191 -93 -313 -290 -313z" />
    <glyph glyph-name="U.sc" horiz-adv-x="635" 
d="M318 -12c-172 0 -253 104 -253 259v327h114v-292c0 -106 23 -184 139 -184c115 0 138 78 138 184v292h114v-327c0 -155 -80 -259 -252 -259z" />
    <glyph glyph-name="Uacute" unicode="&#xda;" horiz-adv-x="720" 
d="M360 -14c-197 0 -290 122 -290 313v401h118v-357c0 -132 27 -246 172 -246s172 114 172 246v357h118v-401c0 -191 -93 -313 -290 -313zM453 853l-187 -62v64l187 92v-94z" />
    <glyph glyph-name="Ucircumflex" unicode="&#xdb;" horiz-adv-x="720" 
d="M360 -14c-197 0 -290 122 -290 313v401h118v-357c0 -132 27 -246 172 -246s172 114 172 246v357h118v-401c0 -191 -93 -313 -290 -313zM507 794l-147 74l-147 -74v62l147 95l147 -95v-62z" />
    <glyph glyph-name="Udieresis" unicode="&#xdc;" horiz-adv-x="720" 
d="M360 -14c-197 0 -290 122 -290 313v401h118v-357c0 -132 27 -246 172 -246s172 114 172 246v357h118v-401c0 -191 -93 -313 -290 -313zM484 799h-89v104h89v-104zM325 799h-89v104h89v-104z" />
    <glyph glyph-name="Ugrave" unicode="&#xd9;" horiz-adv-x="720" 
d="M360 -14c-197 0 -290 122 -290 313v401h118v-357c0 -132 27 -246 172 -246s172 114 172 246v357h118v-401c0 -191 -93 -313 -290 -313zM453 791l-187 62v94l187 -92v-64z" />
    <glyph glyph-name="V" unicode="V" horiz-adv-x="655" 
d="M651 700l-253 -700h-139l-257 700h123l203 -550l200 550h123z" />
    <glyph glyph-name="V.sc" horiz-adv-x="578" 
d="M573 574l-213 -574h-139l-219 574h119l169 -422l166 422h117z" />
    <glyph glyph-name="W" unicode="W" horiz-adv-x="967" 
d="M959 700l-205 -700h-111l-158 500l-160 -500h-116l-197 700h123l144 -527l162 523h88l167 -513l140 517h123z" />
    <glyph glyph-name="W.sc" horiz-adv-x="847" 
d="M837 574l-178 -574h-99l-135 360l-134 -360h-106l-172 574h118l121 -387l134 390h77l141 -377l115 374h118z" />
    <glyph glyph-name="X" unicode="X" horiz-adv-x="620" 
d="M619 0h-133l-180 266l-171 -266h-132l243 349l-236 351h136l168 -254l162 254h133l-236 -338z" />
    <glyph glyph-name="X.sc" horiz-adv-x="561" 
d="M557 0h-133l-145 204l-143 -204h-131l216 287l-206 287h132l139 -196l126 196h131l-198 -276z" />
    <glyph glyph-name="Y" unicode="Y" horiz-adv-x="589" 
d="M594 700l-240 -386v-314h-119v314l-241 386h125l175 -281l175 281h125z" />
    <glyph glyph-name="Y.sc" horiz-adv-x="523" 
d="M530 574l-212 -323v-251h-113v251l-211 323h121l147 -222l147 222h121z" />
    <glyph glyph-name="Yacute" unicode="&#xdd;" horiz-adv-x="589" 
d="M594 700l-240 -386v-314h-119v314l-241 386h125l175 -281l175 281h125zM391 853l-187 -62v64l187 92v-94z" />
    <glyph glyph-name="Ydieresis" unicode="&#x178;" horiz-adv-x="589" 
d="M594 700l-240 -386v-314h-119v314l-241 386h125l175 -281l175 281h125zM422 799h-89v104h89v-104zM263 799h-89v104h89v-104z" />
    <glyph glyph-name="Z" unicode="Z" horiz-adv-x="550" 
d="M542 700l-339 -588h294v-112h-488l339 588h-294v112h488z" />
    <glyph glyph-name="Z.sc" horiz-adv-x="488" 
d="M477 574l-276 -464h237v-110h-425l276 464h-237v110h425z" />
    <glyph glyph-name="Zcaron" unicode="&#x17d;" horiz-adv-x="550" 
d="M542 700l-339 -588h294v-112h-488l339 588h-294v112h488zM424 886l-147 -93l-147 93v64l147 -73l147 73v-64z" />
    <glyph glyph-name="a" unicode="a" horiz-adv-x="493" 
d="M482 83l-11 -93h-34c-65 0 -97 24 -116 62c-34 -39 -91 -62 -152 -62c-84 0 -147 57 -147 148c0 140 181 175 285 177c-2 68 -30 92 -96 92c-42 0 -81 -11 -134 -40l-12 92c54 30 114 47 177 47c116 0 179 -57 179 -212v-124c0 -74 7 -87 48 -87h13zM307 123v115
c-92 -4 -167 -32 -167 -95c0 -45 24 -65 70 -65c30 0 71 16 97 45z" />
    <glyph glyph-name="aacute" unicode="&#xe1;" horiz-adv-x="493" 
d="M482 83l-11 -93h-34c-65 0 -97 24 -116 62c-34 -39 -91 -62 -152 -62c-84 0 -147 57 -147 148c0 140 181 175 285 177c-2 68 -30 92 -96 92c-42 0 -81 -11 -134 -40l-12 92c54 30 114 47 177 47c116 0 179 -57 179 -212v-124c0 -74 7 -87 48 -87h13zM307 123v115
c-92 -4 -167 -32 -167 -95c0 -45 24 -65 70 -65c30 0 71 16 97 45zM340 650l-187 -62v64l187 92v-94z" />
    <glyph glyph-name="acircumflex" unicode="&#xe2;" horiz-adv-x="493" 
d="M482 83l-11 -93h-34c-65 0 -97 24 -116 62c-34 -39 -91 -62 -152 -62c-84 0 -147 57 -147 148c0 140 181 175 285 177c-2 68 -30 92 -96 92c-42 0 -81 -11 -134 -40l-12 92c54 30 114 47 177 47c116 0 179 -57 179 -212v-124c0 -74 7 -87 48 -87h13zM307 123v115
c-92 -4 -167 -32 -167 -95c0 -45 24 -65 70 -65c30 0 71 16 97 45zM394 591l-147 74l-147 -74v62l147 95l147 -95v-62z" />
    <glyph glyph-name="acute" unicode="&#xb4;" horiz-adv-x="303" 
d="M245 650l-187 -62v64l187 92v-94z" />
    <glyph glyph-name="adieresis" unicode="&#xe4;" horiz-adv-x="493" 
d="M482 83l-11 -93h-34c-65 0 -97 24 -116 62c-34 -39 -91 -62 -152 -62c-84 0 -147 57 -147 148c0 140 181 175 285 177c-2 68 -30 92 -96 92c-42 0 -81 -11 -134 -40l-12 92c54 30 114 47 177 47c116 0 179 -57 179 -212v-124c0 -74 7 -87 48 -87h13zM307 123v115
c-92 -4 -167 -32 -167 -95c0 -45 24 -65 70 -65c30 0 71 16 97 45zM371 596h-89v104h89v-104zM212 596h-89v104h89v-104z" />
    <glyph glyph-name="ae" unicode="&#xe6;" horiz-adv-x="797" 
d="M761 230h-323c10 -102 75 -147 150 -147c47 0 103 17 148 39l9 -93c-41 -21 -96 -39 -165 -39c-99 0 -167 36 -200 100c-41 -63 -106 -105 -198 -105c-104 0 -160 54 -160 139c0 154 182 183 288 188c-6 67 -31 95 -99 95c-45 0 -83 -11 -133 -35l-10 91
c59 28 118 43 173 43c67 0 132 -20 154 -99c20 57 94 99 177 99c116 0 196 -80 196 -211c0 -24 -3 -44 -7 -65zM568 410c-63 0 -110 -38 -125 -103h222c0 56 -28 103 -97 103zM318 235c-75 -1 -178 -28 -178 -101c0 -38 29 -59 66 -59c51 0 113 39 113 126c0 11 0 20 -1 34z
" />
    <glyph glyph-name="agrave" unicode="&#xe0;" horiz-adv-x="493" 
d="M482 83l-11 -93h-34c-65 0 -97 24 -116 62c-34 -39 -91 -62 -152 -62c-84 0 -147 57 -147 148c0 140 181 175 285 177c-2 68 -30 92 -96 92c-42 0 -81 -11 -134 -40l-12 92c54 30 114 47 177 47c116 0 179 -57 179 -212v-124c0 -74 7 -87 48 -87h13zM307 123v115
c-92 -4 -167 -32 -167 -95c0 -45 24 -65 70 -65c30 0 71 16 97 45zM340 588l-187 62v94l187 -92v-64z" />
    <glyph glyph-name="ampersand" unicode="&#x26;" horiz-adv-x="621" 
d="M614 0h-128l-35 38c-49 -41 -106 -62 -185 -62c-164 0 -233 90 -233 190c0 87 51 148 123 201c-45 56 -75 113 -75 170c0 105 95 166 201 166c101 0 154 -57 154 -138c0 -91 -75 -148 -149 -199l155 -171c16 44 19 114 20 157h107c-1 -58 -9 -157 -54 -238zM274 613
c-46 0 -84 -26 -84 -80c0 -32 14 -65 49 -109c57 42 98 75 98 126c0 45 -25 63 -63 63zM394 105l-184 199c-36 -33 -61 -75 -61 -128c0 -57 30 -113 129 -113c54 0 90 16 116 42z" />
    <glyph glyph-name="aring" unicode="&#xe5;" horiz-adv-x="493" 
d="M482 83l-11 -93h-34c-65 0 -97 24 -116 62c-34 -39 -91 -62 -152 -62c-84 0 -147 57 -147 148c0 140 181 175 285 177c-2 68 -30 92 -96 92c-42 0 -81 -11 -134 -40l-12 92c54 30 114 47 177 47c116 0 179 -57 179 -212v-124c0 -74 7 -87 48 -87h13zM307 123v115
c-92 -4 -167 -32 -167 -95c0 -45 24 -65 70 -65c30 0 71 16 97 45zM247 576c-66 0 -104 41 -104 89s39 90 104 90c66 0 104 -42 104 -90s-37 -89 -104 -89zM247 712c-27 0 -49 -20 -49 -47c0 -29 22 -47 49 -47s49 18 49 47c0 27 -22 47 -49 47z" />
    <glyph glyph-name="asciicircum" unicode="^" horiz-adv-x="511" 
d="M461 412l-206 213l-206 -213v134l206 213l206 -213v-134z" />
    <glyph glyph-name="asciitilde" unicode="~" horiz-adv-x="463" 
d="M300 177c-49 0 -92 45 -128 45c-33 0 -49 -25 -56 -48l-68 17c10 66 69 98 118 98c54 0 88 -44 125 -44c31 0 53 24 61 48l63 -17c-11 -52 -53 -99 -115 -99z" />
    <glyph glyph-name="asterisk" unicode="*" horiz-adv-x="441" 
d="M312 417l-90 135l-90 -138l-56 54l117 99l-160 57l39 69l138 -101l-28 157h79l-30 -157l139 101l39 -70l-158 -54l117 -98z" />
    <glyph glyph-name="at" unicode="@" horiz-adv-x="717" 
d="M542 379c-25 26 -65 53 -122 53c-124 0 -254 -142 -254 -281c0 -56 23 -111 95 -111c53 0 135 43 176 116c0 -5 -3 -25 -3 -31c0 -35 13 -83 55 -83c40 0 101 31 133 64c-63 -114 -189 -193 -328 -193c-152 0 -248 95 -248 257c0 218 175 383 377 383
c157 0 249 -99 249 -254c0 -48 -9 -97 -25 -140c-28 -43 -90 -65 -123 -65c-36 0 -37 35 -37 53c0 55 29 122 55 232zM421 371c16 0 46 0 54 -22c-19 -107 -118 -243 -185 -243c-31 0 -44 30 -44 64c0 113 110 201 175 201z" />
    <glyph glyph-name="atilde" unicode="&#xe3;" horiz-adv-x="493" 
d="M482 83l-11 -93h-34c-65 0 -97 24 -116 62c-34 -39 -91 -62 -152 -62c-84 0 -147 57 -147 148c0 140 181 175 285 177c-2 68 -30 92 -96 92c-42 0 -81 -11 -134 -40l-12 92c54 30 114 47 177 47c116 0 179 -57 179 -212v-124c0 -74 7 -87 48 -87h13zM307 123v115
c-92 -4 -167 -32 -167 -95c0 -45 24 -65 70 -65c30 0 71 16 97 45zM312 599c-49 0 -92 45 -128 45c-33 0 -49 -25 -56 -48l-68 17c10 66 69 98 118 98c54 0 88 -44 125 -44c31 0 53 24 61 48l63 -16c-11 -53 -53 -100 -115 -100z" />
    <glyph glyph-name="b" unicode="b" horiz-adv-x="569" 
d="M301 -10c-52 0 -96 17 -132 49l-4 -39h-105v750h113v-287c36 31 79 43 128 43c153 0 238 -120 238 -258c0 -141 -89 -258 -238 -258zM292 410c-77 0 -124 -61 -124 -162c0 -103 47 -163 124 -163c82 0 131 69 131 163c0 95 -49 162 -131 162z" />
    <glyph glyph-name="backslash" unicode="\" horiz-adv-x="542" 
d="M524 -85h-122l-369 785h122z" />
    <glyph glyph-name="bar" unicode="|" horiz-adv-x="232" 
d="M164 -210h-96v960h96v-960z" />
    <glyph glyph-name="braceleft" unicode="{" horiz-adv-x="316" 
d="M88 24c0 39 8 94 8 140c0 70 -18 109 -79 143c57 33 79 68 79 144c0 45 -8 100 -8 139c0 101 53 158 217 160v-97c-124 -1 -127 -24 -127 -150c0 -26 3 -56 3 -83c0 -43 -8 -81 -61 -113c53 -31 61 -63 61 -105c0 -27 -3 -57 -3 -90c0 -126 3 -150 127 -151v-97
c-159 2 -217 55 -217 160z" />
    <glyph glyph-name="braceright" unicode="}" horiz-adv-x="316" 
d="M227 24c0 -105 -58 -158 -216 -160v97c124 1 126 25 126 151c0 33 -3 63 -3 90c0 42 8 74 61 105c-53 32 -61 70 -61 113c0 27 3 57 3 83c0 126 -2 149 -126 150v97c164 -2 216 -59 216 -160c0 -39 -7 -94 -7 -139c0 -76 22 -111 79 -144c-61 -34 -79 -73 -79 -143
c0 -46 7 -101 7 -140z" />
    <glyph glyph-name="bracketleft" unicode="[" horiz-adv-x="334" 
d="M325 -136h-257v886h257v-96h-153v-693h153v-97z" />
    <glyph glyph-name="bracketright" unicode="]" horiz-adv-x="340" 
d="M272 -136h-257v112h153v662h-153v112h257v-886z" />
    <glyph glyph-name="brokenbar" unicode="&#xa6;" horiz-adv-x="226" 
d="M157 291h-88v459h88v-459zM157 -210h-88v392h88v-392z" />
    <glyph glyph-name="bullet" unicode="&#x2022;" horiz-adv-x="302" 
d="M151 169c-60 0 -109 49 -109 109s49 109 109 109s109 -49 109 -109s-49 -109 -109 -109z" />
    <glyph glyph-name="c" unicode="c" horiz-adv-x="450" 
d="M273 -10c-161 0 -243 119 -243 258c0 141 82 258 243 258c78 0 119 -16 150 -35l-12 -98c-40 24 -81 37 -128 37c-89 0 -137 -64 -137 -162c0 -97 48 -163 137 -163c47 0 88 13 129 37l11 -95c-31 -20 -70 -37 -150 -37z" />
    <glyph glyph-name="caron" unicode="&#x2c7;" horiz-adv-x="446" 
d="M370 683l-147 -93l-147 93v64l147 -73l147 73v-64z" />
    <glyph glyph-name="ccedilla" unicode="&#xe7;" horiz-adv-x="450" 
d="M273 -10c-161 0 -243 119 -243 258c0 141 82 258 243 258c78 0 119 -16 150 -35l-12 -98c-40 24 -81 37 -128 37c-89 0 -137 -64 -137 -162c0 -97 48 -163 137 -163c47 0 88 13 129 37l11 -95c-31 -20 -70 -37 -150 -37zM336 -53l-96 -133l-65 -7l69 132z" />
    <glyph glyph-name="cedilla" unicode="&#xb8;" horiz-adv-x="303" 
d="M295 -53l-96 -133l-65 -7l69 132z" />
    <glyph glyph-name="cent" unicode="&#xa2;" horiz-adv-x="475" 
d="M299 88l16 -120h-88l17 122c-140 18 -211 129 -211 258s72 240 213 258l-19 142h88l-18 -141c67 -4 100 -18 129 -35l-10 -97c-41 25 -81 38 -129 38c-85 0 -134 -70 -134 -165s49 -165 134 -165c48 0 88 13 129 38l10 -97c-28 -17 -61 -32 -127 -36z" />
    <glyph glyph-name="circumflex" unicode="&#x2c6;" horiz-adv-x="446" 
d="M370 591l-147 74l-147 -74v62l147 95l147 -95v-62z" />
    <glyph glyph-name="colon" unicode=":" horiz-adv-x="224" 
d="M169 324h-114v116h114v-116zM169 0h-114v116h114v-116z" />
    <glyph glyph-name="comma" unicode="," horiz-adv-x="227" 
d="M172 0l-92 -110l-25 14l33 86l-33 10v116h117v-116z" />
    <glyph glyph-name="copyright" unicode="&#xa9;" horiz-adv-x="701" 
d="M351 37c-180 0 -311 131 -311 328c0 198 131 328 311 328s310 -130 310 -328c0 -197 -130 -328 -310 -328zM351 631c-162 0 -242 -114 -242 -266s80 -267 242 -267c161 0 241 115 241 267s-80 266 -241 266zM359 192c-94 0 -162 68 -162 171c0 104 68 172 162 172
c35 0 72 -10 99 -22l-9 -77c-30 12 -58 22 -90 22c-51 0 -78 -38 -78 -95c0 -55 27 -95 78 -95c32 0 60 10 90 24l9 -76c-27 -15 -65 -24 -99 -24z" />
    <glyph glyph-name="currency" unicode="&#xa4;" horiz-adv-x="630" 
d="M572 64l-50 -42l-76 100c-41 -21 -83 -31 -131 -31s-90 10 -131 31l-75 -100l-50 42l73 99c-47 50 -70 115 -70 185s23 135 71 185l-74 99l50 42l75 -100c41 20 83 31 131 31s90 -11 131 -32l76 101l50 -42l-74 -100c47 -50 70 -115 70 -184c0 -70 -24 -135 -71 -186z
M315 516c-88 0 -137 -71 -137 -168s49 -168 137 -168s137 71 137 168s-49 168 -137 168z" />
    <glyph glyph-name="d" unicode="d" horiz-adv-x="569" 
d="M509 0h-106l-4 39c-36 -32 -80 -49 -131 -49c-149 0 -238 117 -238 258c0 138 85 258 238 258c49 0 92 -12 127 -43v287h114v-750zM276 410c-82 0 -130 -67 -130 -162c0 -94 48 -163 130 -163c77 0 127 59 127 162c0 101 -50 163 -127 163z" />
    <glyph glyph-name="dagger" unicode="&#x2020;" horiz-adv-x="424" 
d="M389 356l-139 28l32 -129l-30 -255h-80l-30 255l32 129l-139 -28v118l139 -28l-31 161h138l-31 -161l139 28v-118z" />
    <glyph glyph-name="daggerdbl" unicode="&#x2021;" horiz-adv-x="460" 
d="M407 74l-139 27l31 -160h-138l31 160l-139 -27v117l140 -28l-33 111l33 111l-140 -27v117l139 -28l-31 160h138l-31 -160l139 28v-117l-140 27l33 -111l-33 -111l140 28v-117z" />
    <glyph glyph-name="degree" unicode="&#xb0;" horiz-adv-x="329" 
d="M164 482c-83 0 -132 61 -132 136s49 137 132 137c84 0 133 -62 133 -137s-49 -136 -133 -136zM164 712c-46 0 -71 -42 -71 -94c0 -53 26 -93 71 -93c48 0 71 41 71 93s-23 94 -71 94z" />
    <glyph glyph-name="dieresis" unicode="&#xa8;" horiz-adv-x="422" 
d="M335 596h-89v104h89v-104zM176 596h-89v104h89v-104z" />
    <glyph glyph-name="divide" unicode="&#xf7;" horiz-adv-x="574" 
d="M339 415h-113v119h113v-119zM517 235h-460v87h460v-87zM339 20h-113v119h113v-119z" />
    <glyph glyph-name="dollar" unicode="$" horiz-adv-x="520" 
d="M293 81l16 -113h-101l16 112c-79 4 -144 21 -175 39l15 121c35 -31 101 -61 187 -61c65 0 105 14 105 56c0 108 -316 71 -316 239c0 66 44 145 184 158l-16 116h101l-16 -116c68 -4 132 -22 160 -38l-10 -108c-56 28 -122 51 -171 51c-54 0 -115 -9 -115 -51
c0 -101 328 -50 328 -250c0 -56 -28 -141 -192 -155z" />
    <glyph glyph-name="dotlessi" unicode="&#x131;" 
d="M174 0h-114v497h114v-497z" />
    <glyph glyph-name="dotlessj" unicode="&#x237;" 
d="M47 -240l-40 -2l-11 92c55 2 64 7 64 86v561h114v-607c0 -79 -50 -128 -127 -130z" />
    <glyph glyph-name="e" unicode="e" horiz-adv-x="514" 
d="M479 230h-333c14 -107 86 -145 160 -145c46 0 108 16 150 37l8 -94c-38 -19 -95 -38 -166 -38c-179 0 -269 119 -269 259c0 138 86 257 240 257c124 0 217 -82 217 -214c0 -20 -3 -40 -7 -62zM271 410c-69 0 -107 -42 -120 -103h219c0 52 -28 103 -99 103z" />
    <glyph glyph-name="eacute" unicode="&#xe9;" horiz-adv-x="514" 
d="M479 230h-333c14 -107 86 -145 160 -145c46 0 108 16 150 37l8 -94c-38 -19 -95 -38 -166 -38c-179 0 -269 119 -269 259c0 138 86 257 240 257c124 0 217 -82 217 -214c0 -20 -3 -40 -7 -62zM271 410c-69 0 -107 -42 -120 -103h219c0 52 -28 103 -99 103zM350 650
l-187 -62v64l187 92v-94z" />
    <glyph glyph-name="ecircumflex" unicode="&#xea;" horiz-adv-x="514" 
d="M479 230h-333c14 -107 86 -145 160 -145c46 0 108 16 150 37l8 -94c-38 -19 -95 -38 -166 -38c-179 0 -269 119 -269 259c0 138 86 257 240 257c124 0 217 -82 217 -214c0 -20 -3 -40 -7 -62zM271 410c-69 0 -107 -42 -120 -103h219c0 52 -28 103 -99 103zM403 591
l-147 74l-147 -74v62l147 95l147 -95v-62z" />
    <glyph glyph-name="edieresis" unicode="&#xeb;" horiz-adv-x="514" 
d="M479 230h-333c14 -107 86 -145 160 -145c46 0 108 16 150 37l8 -94c-38 -19 -95 -38 -166 -38c-179 0 -269 119 -269 259c0 138 86 257 240 257c124 0 217 -82 217 -214c0 -20 -3 -40 -7 -62zM271 410c-69 0 -107 -42 -120 -103h219c0 52 -28 103 -99 103zM380 596h-89
v104h89v-104zM221 596h-89v104h89v-104z" />
    <glyph glyph-name="egrave" unicode="&#xe8;" horiz-adv-x="514" 
d="M479 230h-333c14 -107 86 -145 160 -145c46 0 108 16 150 37l8 -94c-38 -19 -95 -38 -166 -38c-179 0 -269 119 -269 259c0 138 86 257 240 257c124 0 217 -82 217 -214c0 -20 -3 -40 -7 -62zM271 410c-69 0 -107 -42 -120 -103h219c0 52 -28 103 -99 103zM350 588
l-187 62v94l187 -92v-64z" />
    <glyph glyph-name="eight" unicode="8" horiz-adv-x="604" 
d="M293 -14c-166 0 -236 100 -236 200c0 62 26 132 116 191c-57 45 -76 105 -76 161c0 89 49 176 209 176c153 0 203 -79 203 -161c0 -70 -32 -117 -96 -167c83 -34 134 -97 134 -184c0 -98 -76 -216 -254 -216zM301 618c-70 0 -100 -39 -100 -90c0 -41 25 -83 95 -104
c75 21 102 65 102 111s-28 83 -97 83zM305 334c-69 -12 -132 -58 -132 -141c0 -71 47 -110 124 -110c81 0 132 47 132 117c0 74 -58 118 -124 134z" />
    <glyph glyph-name="eightinferior" unicode="&#x2088;" horiz-adv-x="369" 
d="M178 -8c-90 0 -135 46 -135 106c0 36 17 74 49 106c-18 12 -27 54 -27 84c0 53 30 98 122 98c88 0 119 -38 119 -89c0 -34 -19 -74 -34 -89c24 -16 55 -57 55 -94c0 -57 -44 -122 -149 -122zM185 323c-39 0 -49 -25 -49 -45c0 -17 0 -46 46 -46c39 0 43 25 43 45
c0 19 -3 46 -40 46zM188 176c-25 0 -64 -25 -64 -67c0 -30 22 -52 57 -52c44 0 59 20 59 52c0 42 -26 66 -52 67z" />
    <glyph glyph-name="eightsuperior" unicode="&#x2078;" horiz-adv-x="342" 
d="M164 312c-90 0 -135 46 -135 106c0 36 17 74 49 106c-18 12 -27 54 -27 84c0 53 30 98 122 98c88 0 119 -38 119 -89c0 -34 -19 -74 -34 -89c24 -16 55 -57 55 -94c0 -57 -44 -122 -149 -122zM171 643c-39 0 -42 -26 -42 -46c0 -22 0 -45 39 -45s43 25 43 45
c0 19 -3 46 -40 46zM174 496c-25 0 -64 -25 -64 -67c0 -30 22 -52 57 -52c44 0 59 20 59 52c0 42 -26 66 -52 67z" />
    <glyph glyph-name="ellipsis" unicode="&#x2026;" horiz-adv-x="696" 
d="M169 0h-114v116h114v-116zM405 0h-114v116h114v-116zM641 0h-114v116h114v-116z" />
    <glyph glyph-name="emdash" unicode="&#x2014;" horiz-adv-x="590" 
d="M535 232h-480v92h480v-92z" />
    <glyph glyph-name="endash" unicode="&#x2013;" horiz-adv-x="498" 
d="M443 232h-388v92h388v-92z" />
    <glyph glyph-name="equal" unicode="=" horiz-adv-x="498" 
d="M434 312h-370v89h370v-89zM434 153h-370v89h370v-89z" />
    <glyph glyph-name="eth" unicode="&#xf0;" horiz-adv-x="517" 
d="M245 -13c-127 0 -224 91 -224 217c0 106 69 222 211 222c60 0 98 -22 123 -44c-5 44 -37 136 -74 163c-44 -33 -89 -53 -138 -59l-36 68c34 1 77 17 122 46c-37 32 -78 51 -119 51l39 50c46 -1 97 -18 146 -53c24 22 42 42 57 63l60 -15c-21 -32 -42 -61 -69 -91
c79 -80 134 -209 134 -347c0 -214 -130 -271 -232 -271zM246 333c-75 0 -113 -60 -113 -116c0 -71 39 -134 115 -134c59 0 111 41 111 124c0 77 -40 126 -113 126z" />
    <glyph glyph-name="exclam" unicode="!" horiz-adv-x="248" 
d="M186 750l-23 -550h-78l-23 550h124zM180 0h-112v112h112v-112z" />
    <glyph glyph-name="exclamdown" unicode="&#xa1;" horiz-adv-x="242" 
d="M59 -250l23 550h78l23 -550h-124zM65 500h112v-112h-112v112z" />
    <glyph glyph-name="f" unicode="f" horiz-adv-x="339" 
d="M320 405h-117v-405h-113v405h-76l12 92h64v120c0 70 39 133 118 133c63 0 79 -4 109 -8l-11 -95c-22 6 -44 6 -56 6c-40 0 -47 -17 -47 -91v-65h117v-92z" />
    <glyph glyph-name="five" unicode="5" horiz-adv-x="540" 
d="M229 -13c-82 0 -171 34 -179 50l28 108c36 -27 92 -49 148 -49c75 0 145 41 145 132c0 65 -37 111 -184 111h-100l43 361h320l-11 -112h-219l-18 -149c202 -2 286 -65 286 -206c0 -160 -127 -246 -259 -246z" />
    <glyph glyph-name="fiveinferior" unicode="&#x2085;" horiz-adv-x="333" 
d="M149 -6c-65 0 -114 30 -114 40l21 79c16 -22 51 -34 108 -34c23 0 43 4 43 41c0 14 -1 45 -78 45h-73l26 213h188l-10 -90h-112l-8 -52c99 -1 149 -34 149 -114c0 -95 -71 -128 -140 -128z" />
    <glyph glyph-name="fivesuperior" unicode="&#x2075;" horiz-adv-x="306" 
d="M137 314c-65 0 -114 30 -114 40l21 79c16 -22 51 -34 108 -34c22 0 43 11 43 41c0 14 -1 45 -78 45h-73l26 213h188l-10 -90h-112l-8 -52c99 -1 149 -34 149 -114c0 -95 -71 -128 -140 -128z" />
    <glyph glyph-name="florin" unicode="&#x192;" horiz-adv-x="356" 
d="M376 702l-9 -82c-16 5 -31 8 -43 8c-67 0 -88 -35 -104 -131h134l-8 -74h-138l-81 -507c-19 -121 -85 -158 -118 -158h-25l-18 90c38 3 59 19 69 87l74 488h-83l8 74h86l7 46c16 107 92 171 185 171c21 0 42 -4 64 -12z" />
    <glyph glyph-name="four" unicode="4" horiz-adv-x="576" 
d="M518 190h-85v-190h-120v190h-301l322 510h99v-412h85v-98zM313 288v224l-135 -224h135z" />
    <glyph glyph-name="fourinferior" unicode="&#x2084;" horiz-adv-x="370" 
d="M329 103h-49v-103h-90v103h-175l187 275h78v-208h49v-67zM190 170v86l-60 -86h60z" />
    <glyph glyph-name="foursuperior" unicode="&#x2074;" horiz-adv-x="343" 
d="M317 423h-49v-103h-90v103h-175l187 275h78v-208h49v-67zM178 490v86l-60 -86h60z" />
    <glyph glyph-name="g" unicode="g" horiz-adv-x="500" 
d="M259 -250c-167 0 -234 77 -234 148c0 41 23 84 84 111c-32 18 -47 42 -47 69s15 52 52 70c-56 40 -79 99 -79 161c0 107 71 197 202 197c45 0 84 -11 117 -32c24 12 64 24 111 24h25l-9 -73h-38c-7 0 -24 -1 -38 -3c25 -34 35 -73 35 -112c0 -104 -71 -196 -201 -196
c-20 0 -40 2 -58 6c-9 -5 -15 -12 -15 -20c0 -25 41 -32 133 -45c73 -10 201 -33 201 -146c0 -92 -85 -159 -241 -159zM237 420c-65 0 -99 -44 -99 -111c0 -68 37 -111 100 -111c65 0 99 46 99 112c0 68 -37 110 -100 110zM264 -29c-13 2 -51 8 -69 10
c-39 -12 -72 -37 -72 -74c0 -44 48 -75 133 -75c84 0 140 30 140 72c0 43 -61 57 -132 67z" />
    <glyph glyph-name="germandbls" unicode="&#xdf;" horiz-adv-x="564" 
d="M321 -15c-20 0 -36 1 -57 4v83c107 1 165 8 165 76c0 109 -148 150 -148 213c0 52 97 95 97 199c0 73 -48 97 -91 97c-56 0 -87 -40 -87 -93v-700h-111v547h-72l10 89h62v59c0 117 105 191 198 191c80 0 195 -53 195 -183c0 -113 -87 -170 -87 -199
c0 -38 148 -84 148 -222c0 -117 -105 -161 -222 -161z" />
    <glyph glyph-name="grave" unicode="`" horiz-adv-x="303" 
d="M245 588l-187 62v94l187 -92v-64z" />
    <glyph glyph-name="greater" unicode="&#x3e;" horiz-adv-x="432" 
d="M403 284l-213 -206h-131l213 206l-213 206h131z" />
    <glyph glyph-name="guillemotleft" unicode="&#xab;" horiz-adv-x="594" 
d="M556 78h-133l-150 206l150 206h133l-151 -206zM295 78h-132l-150 206l150 206h132l-150 -206z" />
    <glyph glyph-name="guillemotright" unicode="&#xbb;" horiz-adv-x="594" 
d="M582 284l-151 -206h-132l150 206l-150 206h132zM322 284l-150 -206h-133l151 206l-151 206h133z" />
    <glyph glyph-name="guilsinglleft" unicode="&#x2039;" horiz-adv-x="339" 
d="M301 78h-135l-154 206l154 206h135l-154 -206z" />
    <glyph glyph-name="guilsinglright" unicode="&#x203a;" horiz-adv-x="340" 
d="M328 284l-154 -206h-135l154 206l-154 206h135z" />
    <glyph glyph-name="h" unicode="h" horiz-adv-x="550" 
d="M496 0h-113v267c0 100 -30 143 -105 143c-48 0 -80 -17 -105 -49v-361h-113v750h113v-288c31 27 71 44 116 44c152 0 207 -98 207 -239v-267z" />
    <glyph glyph-name="hyphen" unicode="-" horiz-adv-x="420" 
d="M365 232h-310v92h310v-92z" />
    <glyph glyph-name="i" unicode="i" 
d="M174 583h-114v117h114v-117zM174 0h-114v497h114v-497z" />
    <glyph glyph-name="iacute" unicode="&#xed;" 
d="M174 0h-114v497h114v-497zM211 650l-187 -62v64l187 92v-94z" />
    <glyph glyph-name="icircumflex" unicode="&#xee;" 
d="M174 0h-114v497h114v-497zM264 591l-147 74l-147 -74v62l147 95l147 -95v-62z" />
    <glyph glyph-name="idieresis" unicode="&#xef;" 
d="M174 0h-114v497h114v-497zM241 596h-89v104h89v-104zM82 596h-89v104h89v-104z" />
    <glyph glyph-name="igrave" unicode="&#xec;" 
d="M174 0h-114v497h114v-497zM211 588l-187 62v94l187 -92v-64z" />
    <glyph glyph-name="j" unicode="j" 
d="M47 -240l-40 -2l-11 92c55 2 64 7 64 86v561h114v-607c0 -79 -50 -128 -127 -130zM174 583h-114v117h114v-117z" />
    <glyph glyph-name="k" unicode="k" horiz-adv-x="477" 
d="M174 0h-114v750h114v-463l165 210h131l-189 -236l190 -261h-130l-167 230v-230z" />
    <glyph glyph-name="l" unicode="l" horiz-adv-x="258" 
d="M238 83l-11 -93h-40c-91 0 -128 59 -128 127v633h114v-582c0 -81 10 -85 65 -85z" />
    <glyph glyph-name="less" unicode="&#x3c;" horiz-adv-x="431" 
d="M373 78h-131l-213 206l213 206h131l-213 -206z" />
    <glyph glyph-name="logicalnot" unicode="&#xac;" horiz-adv-x="592" 
d="M522 151h-82v172h-378v83h460v-255z" />
    <glyph glyph-name="m" unicode="m" horiz-adv-x="871" 
d="M817 0h-114v275c0 92 -27 135 -100 135c-92 0 -108 -57 -108 -109v-301h-113v269c0 112 -35 141 -105 141c-45 0 -81 -16 -104 -48v-362h-113v497h92l8 -43c37 32 81 52 134 52c58 0 119 -22 157 -83c22 41 80 83 170 83c131 0 196 -90 196 -231v-275z" />
    <glyph glyph-name="mu" unicode="&#xb5;" horiz-adv-x="610" 
d="M568 83l-12 -93h-39c-53 0 -88 21 -108 59c-31 -33 -75 -58 -127 -58c-36 0 -64 5 -96 22v-255h-113v739h113v-266c0 -96 28 -145 106 -145c45 0 74 16 101 47v364h113v-326c0 -72 8 -88 45 -88h17z" />
    <glyph glyph-name="multiply" unicode="&#xd7;" horiz-adv-x="446" 
d="M388 165l-53 -53l-112 112l-112 -112l-53 53l112 112l-112 112l53 53l112 -112l112 112l53 -53l-112 -112z" />
    <glyph glyph-name="n" unicode="n" horiz-adv-x="555" 
d="M501 0h-113v269c0 97 -31 141 -108 141c-46 0 -83 -17 -107 -49v-361h-113v497h102l4 -37c38 30 83 46 126 46c152 0 209 -96 209 -237v-269z" />
    <glyph glyph-name="nine" unicode="9" horiz-adv-x="566" 
d="M287 714c119 0 219 -69 219 -262c0 -270 -180 -452 -298 -452l-79 46c74 14 239 122 253 277c-27 -32 -100 -44 -128 -44c-125 0 -211 66 -211 200c0 129 94 235 244 235zM265 376c69 0 126 42 126 122c0 83 -60 112 -113 112c-78 0 -119 -64 -119 -126
c0 -50 26 -108 106 -108z" />
    <glyph glyph-name="nineinferior" unicode="&#x2089;" horiz-adv-x="343" 
d="M173 386c76 0 127 -50 127 -153c0 -114 -93 -233 -180 -233l-51 34c39 0 144 72 148 132c-16 -12 -45 -15 -64 -15c-66 0 -122 37 -122 106c0 67 55 129 142 129zM161 220c33 0 58 10 58 45c0 39 -32 42 -48 42c-33 0 -52 -27 -52 -48c0 -24 17 -39 42 -39z" />
    <glyph glyph-name="ninesuperior" unicode="&#x2079;" horiz-adv-x="320" 
d="M163 706c76 0 127 -50 127 -153c0 -114 -93 -233 -180 -233l-51 34c39 0 146 73 147 131c-16 -12 -43 -14 -62 -14c-55 0 -123 37 -123 106c0 67 55 129 142 129zM151 540c33 0 58 10 58 45c0 39 -33 43 -48 43c-33 0 -52 -28 -52 -49c0 -24 17 -39 42 -39z" />
    <glyph glyph-name="ntilde" unicode="&#xf1;" horiz-adv-x="555" 
d="M501 0h-113v269c0 97 -31 141 -108 141c-46 0 -83 -17 -107 -49v-361h-113v497h102l4 -37c38 30 83 46 126 46c152 0 209 -96 209 -237v-269zM347 599c-49 0 -92 45 -128 45c-33 0 -49 -25 -56 -48l-68 17c10 66 69 98 118 98c54 0 88 -44 125 -44c31 0 53 24 61 48
l63 -16c-11 -53 -53 -100 -115 -100z" />
    <glyph glyph-name="numbersign" unicode="#" horiz-adv-x="704" 
d="M674 510l-32 -94h-115l-39 -103h126l-46 -100h-119l-84 -224h-92l85 224h-118l-86 -224h-90l85 224h-119l44 100h113l39 103h-122l31 94h127l74 190h90l-73 -190h120l73 190h89l-72 -190h111zM437 416h-119l-41 -103h120z" />
    <glyph glyph-name="o" unicode="o" horiz-adv-x="558" 
d="M279 -10c-158 0 -250 117 -250 258c0 140 92 258 250 258s250 -118 250 -258c0 -141 -92 -258 -250 -258zM279 410c-85 0 -134 -64 -134 -162c0 -99 49 -163 134 -163s134 64 134 163c0 98 -49 162 -134 162z" />
    <glyph glyph-name="oacute" unicode="&#xf3;" horiz-adv-x="558" 
d="M279 -10c-158 0 -250 117 -250 258c0 140 92 258 250 258s250 -118 250 -258c0 -141 -92 -258 -250 -258zM279 410c-85 0 -134 -64 -134 -162c0 -99 49 -163 134 -163s134 64 134 163c0 98 -49 162 -134 162zM372 650l-187 -62v64l187 92v-94z" />
    <glyph glyph-name="ocircumflex" unicode="&#xf4;" horiz-adv-x="558" 
d="M279 -10c-158 0 -250 117 -250 258c0 140 92 258 250 258s250 -118 250 -258c0 -141 -92 -258 -250 -258zM279 410c-85 0 -134 -64 -134 -162c0 -99 49 -163 134 -163s134 64 134 163c0 98 -49 162 -134 162zM426 591l-147 74l-147 -74v62l147 95l147 -95v-62z" />
    <glyph glyph-name="odieresis" unicode="&#xf6;" horiz-adv-x="558" 
d="M279 -10c-158 0 -250 117 -250 258c0 140 92 258 250 258s250 -118 250 -258c0 -141 -92 -258 -250 -258zM279 410c-85 0 -134 -64 -134 -162c0 -99 49 -163 134 -163s134 64 134 163c0 98 -49 162 -134 162zM403 596h-89v104h89v-104zM244 596h-89v104h89v-104z" />
    <glyph glyph-name="oe" unicode="&#x153;" horiz-adv-x="897" 
d="M862 230h-329c10 -113 89 -147 152 -147c50 0 113 18 154 39l7 -96c-37 -19 -93 -36 -162 -36c-105 0 -171 33 -211 89c-39 -56 -110 -89 -193 -89c-158 0 -251 118 -251 259s92 257 252 257c79 0 150 -32 189 -87c40 55 107 87 181 87c126 0 218 -82 218 -213
c0 -22 -2 -41 -7 -63zM654 410c-66 0 -105 -39 -118 -103h218c-2 53 -32 103 -100 103zM281 410c-87 0 -136 -64 -136 -162c0 -99 48 -163 136 -163c87 0 134 69 134 164s-49 161 -134 161z" />
    <glyph glyph-name="ograve" unicode="&#xf2;" horiz-adv-x="558" 
d="M279 -10c-158 0 -250 117 -250 258c0 140 92 258 250 258s250 -118 250 -258c0 -141 -92 -258 -250 -258zM279 410c-85 0 -134 -64 -134 -162c0 -99 49 -163 134 -163s134 64 134 163c0 98 -49 162 -134 162zM372 588l-187 62v94l187 -92v-64z" />
    <glyph glyph-name="one" unicode="1" horiz-adv-x="365" 
d="M267 0h-120v533c-32 -24 -61 -37 -93 -44l-12 102c46 12 112 61 135 109h90v-700z" />
    <glyph glyph-name="onehalf" unicode="&#xbd;" horiz-adv-x="733" 
d="M550 700l-369 -785h-124l369 785h124zM698 0h-256c148 202 159 245 159 271c0 27 -14 46 -43 46c-51 0 -84 -53 -92 -67l-11 81c15 27 56 55 119 55c86 0 110 -57 110 -100c0 -48 -27 -106 -88 -196h102v-90zM173 320h-89v253c-5 -1 -20 -3 -43 -4l-3 70
c18 0 59 32 65 59h70v-378z" />
    <glyph glyph-name="oneinferior" unicode="&#x2081;" horiz-adv-x="257" 
d="M175 0h-89v253c-4 -2 -20 -3 -43 -4l-3 70c18 0 59 32 65 59h70v-378z" />
    <glyph glyph-name="onequarter" unicode="&#xbc;" horiz-adv-x="731" 
d="M176 320h-89v253c-5 -1 -20 -3 -43 -4l-3 70c18 0 59 32 65 59h70v-378zM553 700l-369 -785h-124l369 785h124zM698 103h-49v-103h-90v103h-175l187 275h78v-208h49v-67zM559 170v86l-60 -86h60z" />
    <glyph glyph-name="onesuperior" unicode="&#xb9;" horiz-adv-x="220" 
d="M161 320h-89v253c-5 -1 -20 -3 -43 -4l-3 70c18 0 59 32 65 59h70v-378z" />
    <glyph glyph-name="ordfeminine" unicode="&#xaa;" horiz-adv-x="359" 
d="M322 512l-5 -78h-49c-15 0 -48 12 -59 23c-17 -16 -60 -23 -93 -23c-42 0 -84 28 -84 90c0 81 123 100 162 102c-3 10 -10 26 -44 26c-32 0 -55 -9 -87 -17l-6 75c48 16 83 20 119 20c60 0 113 -30 113 -90v-99c0 -27 7 -29 19 -29h14zM195 507v58s-63 -14 -63 -39
c0 -15 11 -24 35 -24c2 0 15 0 28 5z" />
    <glyph glyph-name="ordmasculine" unicode="&#xba;" horiz-adv-x="375" 
d="M188 434c-100 0 -158 71 -158 148s58 148 158 148s157 -71 157 -148s-57 -148 -157 -148zM188 658c-39 0 -62 -35 -62 -76s23 -76 62 -76c38 0 61 35 61 76s-23 76 -61 76z" />
    <glyph glyph-name="oslash" unicode="&#xf8;" horiz-adv-x="563" 
d="M282 -9c-25 0 -48 3 -75 9l-17 -36h-95l35 73c-67 49 -101 127 -101 212c0 140 93 258 253 258c24 0 46 -3 72 -9l17 36h98l-36 -72c67 -51 102 -128 102 -213c0 -140 -93 -258 -253 -258zM386 364l-137 -278c16 -2 24 -3 33 -3c87 0 135 70 135 166c0 41 -9 89 -31 115z
M281 415c-86 0 -134 -69 -134 -166c0 -41 8 -76 30 -115l135 278c-15 3 -22 3 -31 3z" />
    <glyph glyph-name="otilde" unicode="&#xf5;" horiz-adv-x="558" 
d="M279 -10c-158 0 -250 117 -250 258c0 140 92 258 250 258s250 -118 250 -258c0 -141 -92 -258 -250 -258zM279 410c-85 0 -134 -64 -134 -162c0 -99 49 -163 134 -163s134 64 134 163c0 98 -49 162 -134 162zM348 599c-49 0 -92 45 -128 45c-33 0 -49 -25 -56 -48l-68 17
c10 66 69 98 118 98c54 0 88 -44 125 -44c31 0 53 24 61 48l63 -16c-11 -53 -53 -100 -115 -100z" />
    <glyph glyph-name="p" unicode="p" horiz-adv-x="569" 
d="M302 -10c-50 0 -94 16 -129 46v-278h-113v739h96l10 -42c37 32 74 51 136 51c153 0 237 -120 237 -258c0 -141 -82 -258 -237 -258zM293 410c-77 0 -125 -61 -125 -162c0 -103 48 -163 125 -163c82 0 130 69 130 163c0 95 -48 162 -130 162z" />
    <glyph glyph-name="paragraph" unicode="&#xb6;" horiz-adv-x="624" 
d="M580 605h-71v-605h-75v605h-75v-605h-60v233c-180 11 -266 124 -266 235c0 115 93 232 287 232h260v-95z" />
    <glyph glyph-name="parenleft" unicode="(" horiz-adv-x="272" 
d="M249 -136h-102c-65 109 -106 232 -106 443s41 334 106 443h102c-64 -110 -116 -249 -116 -443s52 -333 116 -443z" />
    <glyph glyph-name="parenright" unicode=")" horiz-adv-x="272" 
d="M125 -136h-102c64 110 116 249 116 443s-52 333 -116 443h102c65 -109 106 -232 106 -443s-41 -334 -106 -443z" />
    <glyph glyph-name="percent" unicode="%" horiz-adv-x="840" 
d="M653 -10c-89 0 -150 70 -150 182c0 117 69 189 155 189s149 -69 149 -181c0 -117 -62 -190 -154 -190zM667 700l-421 -712h-95l421 712h95zM182 334c-88 0 -149 70 -149 182c0 117 69 188 154 188s149 -68 149 -180c0 -117 -63 -190 -154 -190zM656 296
c-43 0 -82 -40 -82 -124c0 -80 33 -116 79 -116c49 0 82 38 82 124c0 78 -37 116 -79 116zM186 639c-41 0 -80 -41 -80 -123c0 -78 34 -114 77 -114c46 0 81 38 81 122c0 77 -38 115 -78 115z" />
    <glyph glyph-name="period" unicode="." horiz-adv-x="224" 
d="M169 0h-114v116h114v-116z" />
    <glyph glyph-name="periodcentered" unicode="&#xb7;" 
d="M179 213h-124v130h124v-130z" />
    <glyph glyph-name="perthousand" unicode="&#x2030;" horiz-adv-x="1202" 
d="M655 -10c-89 0 -150 70 -150 182c0 117 69 189 155 189s149 -69 149 -181c0 -117 -62 -190 -154 -190zM669 700l-421 -712h-95l421 712h95zM184 334c-88 0 -149 70 -149 182c0 117 69 188 154 188s149 -68 149 -180c0 -117 -63 -190 -154 -190zM658 296
c-43 0 -82 -40 -82 -124c0 -80 33 -116 79 -116c49 0 82 38 82 124c0 78 -37 116 -79 116zM188 639c-41 0 -80 -41 -80 -123c0 -78 34 -114 77 -114c46 0 81 38 81 122c0 77 -38 115 -78 115zM1015 -10c-89 0 -149 70 -149 182c0 117 69 189 154 189c86 0 150 -69 150 -181
c0 -117 -63 -190 -155 -190zM1018 296c-42 0 -81 -40 -81 -124c0 -80 33 -116 78 -116c49 0 83 38 83 124c0 78 -37 116 -80 116z" />
    <glyph glyph-name="plus" unicode="+" horiz-adv-x="462" 
d="M416 232h-140v-130h-90v130h-140v92h140v128h90v-128h140v-92z" />
    <glyph glyph-name="plusminus" unicode="&#xb1;" horiz-adv-x="492" 
d="M431 315h-143v-133h-84v133h-143v86h143v131h84v-131h143v-86zM431 34h-370v85h370v-85z" />
    <glyph glyph-name="q" unicode="q" horiz-adv-x="569" 
d="M267 -10c-155 0 -237 117 -237 258c0 138 84 258 237 258c62 0 99 -19 136 -51l10 42h96v-739h-114v278c-34 -30 -79 -46 -128 -46zM276 410c-82 0 -130 -67 -130 -162c0 -94 48 -163 130 -163c77 0 125 60 125 163c0 101 -48 162 -125 162z" />
    <glyph glyph-name="question" unicode="?" horiz-adv-x="442" 
d="M239 200h-76c-3 39 -3 47 -3 51c0 124 133 194 133 309c0 70 -51 102 -110 102c-60 0 -105 -34 -126 -66l-27 84c30 46 93 70 160 70c140 0 209 -108 209 -189c0 -123 -160 -212 -160 -344v-17zM258 0h-113v112h113v-112z" />
    <glyph glyph-name="questiondown" unicode="&#xbf;" horiz-adv-x="442" 
d="M210 300h76c3 -39 3 -47 3 -51c0 -124 -133 -194 -133 -309c0 -70 51 -102 110 -102c60 0 105 34 126 66l27 -84c-30 -46 -93 -70 -160 -70c-141 0 -209 108 -209 189c0 123 160 212 160 344v17zM191 500h113v-112h-113v112z" />
    <glyph glyph-name="quotedbl" unicode="&#x22;" horiz-adv-x="399" 
d="M361 750l-20 -300h-74l-20 300h114zM153 750l-20 -300h-75l-20 300h115z" />
    <glyph glyph-name="quotedblbase" unicode="&#x201e;" horiz-adv-x="457" 
d="M172 0l-92 -110l-25 14l33 86l-33 10v116h117v-116zM402 0l-92 -110l-25 14l33 86l-33 10v116h117v-116z" />
    <glyph glyph-name="quotedblleft" unicode="&#x201c;" horiz-adv-x="412" 
d="M43 640l92 110l25 -14l-34 -86l33 -10v-116h-116v116zM253 640l92 110l25 -14l-34 -86l33 -10v-116h-116v116z" />
    <glyph glyph-name="quotedblright" unicode="&#x201d;" horiz-adv-x="395" 
d="M368 634l-92 -110l-25 14l33 86l-33 10v116h117v-116zM158 634l-92 -110l-25 14l33 86l-33 10v116h117v-116z" />
    <glyph glyph-name="quoteleft" unicode="&#x2018;" horiz-adv-x="202" 
d="M43 640l92 110l25 -14l-34 -86l33 -10v-116h-116v116z" />
    <glyph glyph-name="quoteright" unicode="&#x2019;" horiz-adv-x="185" 
d="M158 634l-92 -110l-25 14l33 86l-33 10v116h117v-116z" />
    <glyph glyph-name="quotesinglbase" unicode="&#x201a;" horiz-adv-x="227" 
d="M172 0l-92 -110l-25 14l33 86l-33 10v116h117v-116z" />
    <glyph glyph-name="quotesingle" unicode="'" horiz-adv-x="194" 
d="M155 750l-19 -300h-78l-19 300h116z" />
    <glyph glyph-name="r" unicode="r" horiz-adv-x="338" 
d="M337 508l-22 -111h-42c-41 0 -82 -26 -97 -54v-343h-116v497h103l6 -62c36 40 85 73 143 73h25z" />
    <glyph glyph-name="registered" unicode="&#xae;" horiz-adv-x="701" 
d="M351 37c-180 0 -311 131 -311 328c0 198 131 328 311 328s310 -130 310 -328c0 -197 -130 -328 -310 -328zM351 630c-162 0 -241 -113 -241 -265c0 -151 79 -266 241 -266c161 0 240 115 240 266c0 152 -79 265 -240 265zM492 205h-83l-63 114h-38v-114h-80v331h124
c69 0 117 -24 117 -107c0 -38 -23 -70 -50 -87zM339 469h-31v-77h29c41 0 49 17 49 39c0 23 -7 38 -47 38z" />
    <glyph glyph-name="ring" unicode="&#x2da;" horiz-adv-x="292" 
d="M146 576c-66 0 -104 41 -104 89s39 90 104 90c66 0 104 -42 104 -90s-37 -89 -104 -89zM146 712c-27 0 -49 -20 -49 -47c0 -29 22 -47 49 -47s49 18 49 47c0 27 -22 47 -49 47z" />
    <glyph glyph-name="s" unicode="s" horiz-adv-x="421" 
d="M201 -10c-81 0 -142 21 -169 39l11 100c28 -22 92 -50 154 -50c61 0 83 27 83 57c0 45 -48 60 -94 74c-69 20 -147 43 -147 140c0 72 44 156 183 156c65 0 122 -19 150 -36l-11 -98c-27 24 -78 50 -132 50c-47 0 -87 -16 -87 -58c0 -48 47 -59 114 -76
c61 -16 138 -49 138 -151c0 -63 -29 -147 -193 -147z" />
    <glyph glyph-name="scaron" unicode="&#x161;" horiz-adv-x="421" 
d="M201 -10c-81 0 -142 21 -169 39l11 100c28 -22 92 -50 154 -50c61 0 83 27 83 57c0 45 -48 60 -94 74c-69 20 -147 43 -147 140c0 72 44 156 183 156c65 0 122 -19 150 -36l-11 -98c-27 24 -78 50 -132 50c-47 0 -87 -16 -87 -58c0 -48 47 -59 114 -76
c61 -16 138 -49 138 -151c0 -63 -29 -147 -193 -147zM353 683l-147 -93l-147 93v64l147 -73l147 73v-64z" />
    <glyph glyph-name="section" unicode="&#xa7;" horiz-adv-x="460" 
d="M329 187c38 -31 48 -62 48 -109c0 -73 -38 -163 -170 -163c-56 0 -119 20 -143 41l11 92c37 -26 88 -48 129 -48c50 0 94 16 94 66c0 121 -259 61 -259 265c0 49 13 118 92 148c-38 29 -49 62 -49 105c0 78 39 166 170 166c57 0 120 -21 144 -41l-10 -92
c-37 26 -89 48 -130 48c-49 0 -92 -20 -92 -67c0 -115 257 -63 257 -266c0 -47 -15 -114 -92 -145zM200 417c-24 0 -74 -22 -74 -67c0 -65 77 -96 140 -112c31 4 68 41 68 77c0 69 -85 90 -134 102z" />
    <glyph glyph-name="semicolon" unicode=";" horiz-adv-x="238" 
d="M183 324h-126v116h126v-116zM174 0l-92 -110l-25 14l33 86l-33 10v116h117v-116z" />
    <glyph glyph-name="seven" unicode="7" horiz-adv-x="509" 
d="M500 700l-296 -700h-123l248 588h-287v112h458z" />
    <glyph glyph-name="seveninferior" unicode="&#x2087;" horiz-adv-x="335" 
d="M314 378l-163 -378h-96l126 288h-137v90h270z" />
    <glyph glyph-name="sevensuperior" unicode="&#x2077;" horiz-adv-x="296" 
d="M297 698l-163 -378h-96l126 288h-137v90h270z" />
    <glyph glyph-name="six" unicode="6" horiz-adv-x="565" 
d="M278 -14c-121 0 -218 71 -218 263c0 262 200 450 300 451l78 -46c-72 -14 -226 -134 -251 -280c30 39 84 47 124 47c116 0 211 -66 211 -202c0 -126 -94 -233 -244 -233zM302 324c-69 0 -125 -42 -125 -122c0 -76 60 -112 114 -112c76 0 120 62 120 129
c0 46 -29 105 -109 105z" />
    <glyph glyph-name="sixinferior" unicode="&#x2086;" horiz-adv-x="345" 
d="M169 -8c-71 0 -126 43 -126 153c0 140 127 233 174 233l59 -34c-49 0 -138 -97 -141 -127c10 9 46 11 54 11c71 0 122 -38 122 -109c0 -64 -55 -127 -142 -127zM185 159c-34 0 -57 -11 -57 -48c0 -24 31 -39 49 -39c28 0 54 22 54 51c0 18 -20 36 -46 36z" />
    <glyph glyph-name="sixsuperior" unicode="&#x2076;" horiz-adv-x="320" 
d="M156 312c-71 0 -126 43 -126 153c0 140 124 232 174 233l59 -34c-40 0 -138 -101 -141 -128c10 9 49 12 57 12c66 0 119 -38 119 -109c0 -64 -55 -127 -142 -127zM172 478c-34 0 -57 -10 -57 -47c0 -24 31 -38 49 -38c28 0 54 21 54 50c0 18 -20 35 -46 35z" />
    <glyph glyph-name="slash" unicode="/" horiz-adv-x="544" 
d="M511 700l-369 -785h-124l369 785h124z" />
    <glyph glyph-name="space" unicode=" " horiz-adv-x="225" 
 />
    <glyph glyph-name="sterling" unicode="&#xa3;" horiz-adv-x="519" 
d="M464 608l-42 -53c-15 42 -30 76 -82 76c-74 0 -82 -66 -82 -149v-89h188l-18 -77h-174c-5 -82 -16 -140 -53 -222h255v-94h-423c75 93 103 197 115 316h-91l17 77h78v110c0 97 19 203 166 203c88 0 130 -37 146 -98z" />
    <glyph glyph-name="t" unicode="t" horiz-adv-x="342" 
d="M319 83l-10 -93h-86c-94 0 -132 64 -132 127v288h-75l10 92h65v113l113 12v-125h116v-92h-116v-236c0 -82 6 -86 84 -86h31z" />
    <glyph glyph-name="thorn" unicode="&#xfe;" horiz-adv-x="577" 
d="M301 -10c-56 0 -95 15 -128 44v-276h-113v992h113v-287c36 28 75 43 130 43c157 0 244 -119 244 -258s-86 -258 -246 -258zM293 410c-89 0 -126 -67 -126 -162c0 -96 37 -165 126 -165s138 68 138 165c0 96 -49 162 -138 162z" />
    <glyph glyph-name="three" unicode="3" horiz-adv-x="543" 
d="M227 -14c-90 0 -175 37 -189 54l29 108c38 -29 96 -51 156 -51c70 0 140 26 140 115c0 64 -24 123 -140 123h-85l11 92h43c110 0 144 43 144 99c0 55 -34 87 -108 87c-52 0 -101 -14 -127 -36l-19 91c19 19 78 46 159 46c179 0 216 -109 216 -184
c0 -59 -22 -105 -74 -142c69 -34 99 -97 99 -172c0 -155 -126 -230 -255 -230z" />
    <glyph glyph-name="threeinferior" unicode="&#x2083;" horiz-adv-x="333" 
d="M139 -8c-49 0 -101 20 -108 30l22 83c1 -12 50 -24 80 -24c43 0 70 11 70 32c0 32 -9 59 -53 59h-62l7 67h32c47 0 59 23 59 36c0 17 -11 40 -52 40c-13 0 -47 0 -65 -15l-12 61c15 14 55 25 89 25c107 0 128 -65 128 -104s-15 -66 -26 -72c18 -23 41 -42 41 -91
c0 -84 -74 -127 -150 -127z" />
    <glyph glyph-name="threequarters" unicode="&#xbe;" horiz-adv-x="898" 
d="M718 700l-369 -785h-124l369 785h124zM139 312c-49 0 -101 20 -108 30l22 83c1 -12 50 -24 80 -24c43 0 70 11 70 32c0 32 -9 59 -53 59h-62l7 67h32c47 0 59 23 59 36c0 17 -11 41 -52 41c-13 0 -47 -1 -65 -16l-12 61c15 14 55 25 89 25c107 0 128 -65 128 -104
s-15 -66 -26 -72c18 -23 41 -42 41 -91c0 -84 -74 -127 -150 -127zM864 103h-49v-103h-90v103h-175l187 275h78v-208h49v-67zM725 170v86l-60 -86h60z" />
    <glyph glyph-name="threesuperior" unicode="&#xb3;" horiz-adv-x="307" 
d="M126 312c-49 0 -101 20 -108 30l22 83c1 -12 50 -24 80 -24c43 0 70 11 70 32c0 32 -9 59 -53 59h-62l7 67h32c47 0 59 23 59 36c0 17 -11 41 -52 41c-13 0 -47 -1 -65 -16l-12 61c15 14 55 25 89 25c107 0 128 -65 128 -104s-15 -66 -26 -72c18 -23 41 -42 41 -91
c0 -84 -74 -127 -150 -127z" />
    <glyph glyph-name="tilde" unicode="&#x2dc;" horiz-adv-x="528" 
d="M333 599c-49 0 -92 45 -128 45c-33 0 -49 -25 -56 -48l-68 17c10 66 69 98 118 98c54 0 88 -44 125 -44c31 0 53 24 61 48l63 -16c-11 -53 -53 -100 -115 -100z" />
    <glyph glyph-name="trademark" unicode="&#x2122;" horiz-adv-x="735" 
d="M497 431h-10l-80 136l-29 -230h-73l49 363h43l96 -158l94 158h44l49 -363h-74l-28 229zM305 700l-8 -69h-96v-294h-71v294h-99v69h274z" />
    <glyph glyph-name="two" unicode="2" horiz-adv-x="529" 
d="M472 0h-424c261 375 285 457 285 509c0 66 -40 104 -105 104c-86 0 -138 -69 -161 -103l-15 106c17 30 85 98 202 98c147 0 192 -104 192 -189c0 -92 -54 -208 -193 -413h219v-112z" />
    <glyph glyph-name="twoinferior" unicode="&#x2082;" horiz-adv-x="334" 
d="M288 0h-256c148 202 159 245 159 271c0 27 -14 46 -43 46c-51 0 -84 -53 -92 -67l-11 81c15 27 56 55 119 55c86 0 110 -57 110 -100c0 -48 -27 -106 -88 -196h102v-90z" />
    <glyph glyph-name="twosuperior" unicode="&#xb2;" horiz-adv-x="309" 
d="M276 320h-256c148 202 159 245 159 271c0 27 -14 46 -43 46c-51 0 -84 -53 -92 -67l-11 81c15 27 56 55 119 55c86 0 110 -57 110 -100c0 -48 -27 -106 -88 -196h102v-90z" />
    <glyph glyph-name="u" unicode="u" horiz-adv-x="544" 
d="M484 0h-104l-5 37c-29 -28 -72 -47 -119 -47c-143 0 -202 90 -202 233v274h113v-266c0 -97 31 -144 104 -144c42 0 77 15 100 46v364h113v-497z" />
    <glyph glyph-name="uacute" unicode="&#xfa;" horiz-adv-x="544" 
d="M484 0h-104l-5 37c-29 -28 -72 -47 -119 -47c-143 0 -202 90 -202 233v274h113v-266c0 -97 31 -144 104 -144c42 0 77 15 100 46v364h113v-497zM370 650l-187 -62v64l187 92v-94z" />
    <glyph glyph-name="ucircumflex" unicode="&#xfb;" horiz-adv-x="544" 
d="M484 0h-104l-5 37c-29 -28 -72 -47 -119 -47c-143 0 -202 90 -202 233v274h113v-266c0 -97 31 -144 104 -144c42 0 77 15 100 46v364h113v-497zM424 591l-147 74l-147 -74v62l147 95l147 -95v-62z" />
    <glyph glyph-name="udieresis" unicode="&#xfc;" horiz-adv-x="544" 
d="M484 0h-104l-5 37c-29 -28 -72 -47 -119 -47c-143 0 -202 90 -202 233v274h113v-266c0 -97 31 -144 104 -144c42 0 77 15 100 46v364h113v-497zM401 596h-89v104h89v-104zM242 596h-89v104h89v-104z" />
    <glyph glyph-name="ugrave" unicode="&#xf9;" horiz-adv-x="544" 
d="M484 0h-104l-5 37c-29 -28 -72 -47 -119 -47c-143 0 -202 90 -202 233v274h113v-266c0 -97 31 -144 104 -144c42 0 77 15 100 46v364h113v-497zM370 588l-187 62v94l187 -92v-64z" />
    <glyph glyph-name="underscore" unicode="_" horiz-adv-x="562" 
d="M561 -128h-560v92h560v-92z" />
    <glyph glyph-name="uni00AD" unicode="&#xad;" horiz-adv-x="420" 
d="M365 230h-310v94h310v-94z" />
    <glyph glyph-name="v" unicode="v" horiz-adv-x="497" 
d="M491 497l-190 -497h-105l-190 497h115l127 -360l127 360h116z" />
    <glyph glyph-name="w" unicode="w" horiz-adv-x="725" 
d="M715 497l-147 -497h-103l-102 337l-103 -337h-103l-147 497h117l88 -362l97 350h101l96 -350l90 362h116z" />
    <glyph glyph-name="x" unicode="x" horiz-adv-x="487" 
d="M476 0h-134l-101 157l-97 -157h-134l165 248l-163 249h133l101 -158l93 158h135l-162 -246z" />
    <glyph glyph-name="y" unicode="y" horiz-adv-x="530" 
d="M525 497l-309 -739h-117l112 272l-207 467h126l136 -335l133 335h126z" />
    <glyph glyph-name="yacute" unicode="&#xfd;" horiz-adv-x="530" 
d="M525 497l-309 -739h-117l112 272l-207 467h126l136 -335l133 335h126zM358 650l-187 -62v64l187 92v-94z" />
    <glyph glyph-name="ydieresis" unicode="&#xff;" horiz-adv-x="530" 
d="M525 497l-309 -739h-117l112 272l-207 467h126l136 -335l133 335h126zM388 596h-89v104h89v-104zM229 596h-89v104h89v-104z" />
    <glyph glyph-name="yen" unicode="&#xa5;" horiz-adv-x="695" 
d="M668 700l-248 -370h153l-25 -63h-141v-62h166l-25 -65h-141v-140h-118v140h-169l23 65h146v62h-169l23 63h133l-248 370h120l200 -286l200 286h120z" />
    <glyph glyph-name="z" unicode="z" horiz-adv-x="475" 
d="M452 497l-234 -399h225v-98h-420l233 399h-223v98h419z" />
    <glyph glyph-name="zcaron" unicode="&#x17e;" horiz-adv-x="475" 
d="M452 497l-234 -399h225v-98h-420l233 399h-223v98h419zM385 683l-147 -93l-147 93v64l147 -73l147 73v-64z" />
    <glyph glyph-name="zero" unicode="0" horiz-adv-x="708" 
d="M348 -14c-172 0 -288 140 -288 353c0 223 132 375 300 375c165 0 288 -146 288 -358c0 -223 -120 -370 -300 -370zM358 609c-91 0 -178 -87 -178 -270c0 -171 72 -247 170 -247c104 0 180 79 180 264c0 170 -81 253 -172 253z" />
    <glyph glyph-name="zeroinferior" unicode="&#x2080;" horiz-adv-x="427" 
d="M210 -8c-101 0 -167 79 -167 192c0 117 75 202 174 202c97 0 167 -82 167 -195c0 -116 -68 -199 -174 -199zM216 308c-39 0 -85 -37 -85 -124c0 -82 37 -112 80 -112c47 0 86 30 86 119c0 82 -42 117 -81 117z" />
    <glyph glyph-name="zerosuperior" unicode="&#x2070;" horiz-adv-x="401" 
d="M197 312c-101 0 -167 79 -167 192c0 117 75 202 174 202c97 0 167 -82 167 -195c0 -116 -68 -199 -174 -199zM203 628c-39 0 -85 -37 -85 -124c0 -82 37 -112 80 -112c47 0 86 30 86 119c0 82 -42 117 -81 117z" />
    </font>
</defs>
</svg>
