<?xml version="1.0" standalone="no"?>
<!DOCTYPE svg PUBLIC "-//W3C//DTD SVG 1.1//EN" "http://www.w3.org/Graphics/SVG/1.1/DTD/svg11.dtd" >
<svg>
<metadata>
Created by FontForge 20120731 at Wed Aug 17 08:57:53 2016
 By www
ITC Franklin Gothic is a registered trademark of International Typeface Corporation.
</metadata>
<defs>
<font id="FranklinGothicLT-BookItal" horiz-adv-x="586" >
  <font-face 
    font-family="ITC Franklin Gothic LT"
    font-weight="500"
    font-style="italic"
    font-stretch="normal"
    units-per-em="1000"
    panose-1="0 0 0 0 0 0 0 0 0 0"
    ascent="800"
    descent="-200"
    x-height="495"
    cap-height="667"
    bbox="-201 -250 1085 886"
    underline-thickness="50"
    underline-position="-75"
    stemh="60"
    stemv="77"
    unicode-range="U+0020-FB02"
  />
<missing-glyph horiz-adv-x="290" 
 />
    <glyph glyph-name=".notdef" horiz-adv-x="290" 
 />
    <glyph glyph-name="space" unicode=" " horiz-adv-x="290" 
 />
    <glyph glyph-name="exclam" unicode="!" horiz-adv-x="267" 
d="M145 171h-42l44 496h110zM143 0h-101l16 95h101z" />
    <glyph glyph-name="quotedbl" unicode="&#x22;" horiz-adv-x="373" 
d="M221 667l-57 -255h-45l28 255h74zM353 667l-58 -255h-45l28 255h75z" />
    <glyph glyph-name="numbersign" unicode="#" 
d="M576 471l-13 -60h-102l-31 -139h103l-14 -60h-102l-47 -212h-64l47 212h-141l-47 -212h-64l47 212h-106l13 60h107l30 139h-106l13 60h107l43 196h63l-43 -196h141l43 196h63l-43 -196h103zM366 272l30 139h-140l-31 -139h141z" />
    <glyph glyph-name="dollar" unicode="$" 
d="M547 536l-67 -33c-33 72 -83 86 -108 93l-37 -220c63 -16 184 -47 184 -175c0 -48 -27 -194 -246 -197l-16 -97h-60l18 105c-60 14 -132 42 -180 150l66 34c13 -28 42 -97 125 -118l39 236c-50 14 -164 44 -164 162c0 48 29 182 223 186l14 87h60l-16 -92
c113 -18 152 -94 165 -121zM278 390l36 212c-83 -2 -139 -44 -139 -111c0 -77 73 -94 103 -101zM322 301l-38 -231c116 -3 158 68 158 121c0 77 -72 97 -120 110z" />
    <glyph glyph-name="percent" unicode="%" horiz-adv-x="773" 
d="M384 526c0 -90 -64 -195 -170 -195c-81 0 -138 66 -138 153c0 88 57 196 168 196c94 0 140 -83 140 -154zM323 542c0 46 -28 89 -81 89c-97 0 -105 -138 -105 -155c0 -38 20 -96 83 -96c73 0 103 85 103 162zM725 184c0 -97 -66 -195 -163 -195c-109 0 -146 94 -146 158
c0 87 68 192 167 192c96 0 142 -82 142 -155zM663 199c0 85 -66 91 -81 91c-75 0 -103 -92 -103 -152c0 -84 51 -100 80 -100c55 0 104 49 104 161zM171 0h-63l520 667h63z" />
    <glyph glyph-name="ampersand" unicode="&#x26;" horiz-adv-x="667" 
d="M336 363l105 -217c61 63 107 136 139 217l59 -23c-36 -89 -89 -176 -166 -251c11 -18 27 -44 63 -44c17 0 42 4 60 8l-8 -62c-17 -4 -40 -9 -62 -9c-57 0 -79 27 -108 63c-57 -38 -101 -64 -173 -64c-124 0 -213 91 -213 196c0 37 14 124 106 174c34 18 74 33 107 45
c-25 47 -48 99 -48 149c0 67 54 141 159 141c94 0 157 -61 157 -141c0 -106 -95 -147 -177 -182zM386 99l-117 246c-67 -26 -154 -66 -154 -165c0 -70 53 -137 139 -137c64 0 110 38 132 56zM315 414c59 25 130 58 130 132c0 50 -40 82 -89 82c-54 0 -88 -39 -88 -91
c0 -33 30 -92 47 -123z" />
    <glyph glyph-name="quoteright" unicode="&#x2019;" horiz-adv-x="237" 
d="M140 667h97l-16 -94l-98 -128h-39l84 128h-44z" />
    <glyph glyph-name="parenleft" unicode="(" horiz-adv-x="283" 
d="M171 -167h-47c-53 82 -90 184 -90 323s46 325 230 511h56c-134 -150 -219 -339 -219 -539c0 -154 49 -253 70 -295z" />
    <glyph glyph-name="parenright" unicode=")" horiz-adv-x="283" 
d="M113 667h46c63 -96 91 -209 91 -324c0 -150 -56 -334 -230 -510h-56c134 149 219 338 219 539c0 154 -49 253 -70 295z" />
    <glyph glyph-name="asterisk" unicode="*" horiz-adv-x="524" 
d="M306 667h58l-33 -171l171 56l8 -55l-171 -49l80 -136l-52 -34l-74 140l-121 -140l-41 34l126 136l-155 49l27 55l152 -56z" />
    <glyph glyph-name="plus" unicode="+" 
d="M74 368h197v205h73v-205h197v-68h-197v-205h-73v205h-197v68z" />
    <glyph glyph-name="comma" unicode="," horiz-adv-x="250" 
d="M27 -149h-39l91 149h-50l18 112h110l-18 -112z" />
    <glyph glyph-name="hyphen" unicode="-" horiz-adv-x="222" 
d="M218 220h-222l9 57h222z" />
    <glyph glyph-name="period" unicode="." horiz-adv-x="250" 
d="M139 0h-110l18 112h110z" />
    <glyph glyph-name="slash" unicode="/" horiz-adv-x="469" 
d="M-47 -167h-64l562 834h64z" />
    <glyph glyph-name="zero" unicode="0" 
d="M565 399c0 -102 -26 -203 -81 -288c-73 -113 -153 -132 -213 -132c-130 0 -221 111 -221 293c0 177 99 416 291 416c131 0 224 -114 224 -289zM480 414c0 91 -17 131 -36 159c-22 31 -63 53 -106 53c-165 0 -206 -277 -206 -375c0 -58 9 -111 32 -150
c20 -34 63 -61 112 -61c157 0 204 253 204 374z" />
    <glyph glyph-name="one" unicode="1" 
d="M528 0h-477l11 65h194l87 512c-15 -19 -30 -38 -84 -59c-53 -20 -85 -22 -114 -23l11 66c96 14 176 46 226 122h57l-104 -618h204z" />
    <glyph glyph-name="two" unicode="2" 
d="M490 0h-474l14 82c80 50 234 148 340 232c37 30 104 92 104 170c0 83 -68 136 -146 136c-64 0 -111 -35 -131 -65c-19 -28 -32 -58 -44 -89l-67 25c16 45 68 196 242 196c131 0 229 -92 229 -207c0 -120 -97 -194 -202 -264c-63 -42 -150 -95 -238 -145h385z" />
    <glyph glyph-name="three" unicode="3" 
d="M24 150l67 26c15 -35 56 -127 179 -127c87 0 163 56 163 141c0 56 -35 96 -69 110c-38 15 -72 15 -158 15l11 66c83 -2 107 -1 136 4c98 17 112 91 112 120c0 74 -66 117 -133 117c-100 0 -139 -73 -157 -107l-61 34c13 23 31 56 73 87c55 41 109 47 147 47
c142 0 211 -93 211 -178c0 -55 -28 -99 -63 -124c-34 -24 -67 -31 -90 -36c24 -7 61 -17 92 -63c17 -24 30 -58 30 -96c0 -100 -88 -203 -240 -203c-62 0 -197 21 -250 167z" />
    <glyph glyph-name="four" unicode="4" 
d="M398 0h-79l27 161h-319l11 67l378 457h96l-76 -458h109l-11 -66h-109zM110 227h247l63 375z" />
    <glyph glyph-name="five" unicode="5" 
d="M36 140l65 29c21 -38 64 -116 172 -116c122 0 177 100 177 179c0 86 -61 156 -151 156c-35 0 -68 -11 -100 -37c-24 -20 -35 -38 -45 -54l-71 21l80 349h391l-23 -71h-317l-49 -219c24 28 62 74 148 74c113 0 216 -87 216 -217c0 -106 -77 -246 -256 -246
c-67 0 -181 24 -237 152z" />
    <glyph glyph-name="six" unicode="6" 
d="M582 533l-74 -20c-27 65 -71 105 -141 105c-164 0 -211 -222 -227 -298c19 32 70 121 193 121c118 0 213 -92 213 -216c0 -108 -80 -241 -241 -241c-139 0 -246 101 -246 280c0 158 88 419 306 419c72 0 123 -25 156 -55c39 -34 52 -70 61 -95zM467 229
c0 69 -56 145 -147 145c-78 0 -170 -63 -170 -170c0 -92 71 -153 151 -153c84 0 166 66 166 178z" />
    <glyph glyph-name="seven" unicode="7" horiz-adv-x="585" 
d="M251 -8h-89c31 346 250 537 325 602h-377l22 73h456l-9 -55c-156 -153 -302 -312 -328 -620z" />
    <glyph glyph-name="eight" unicode="8" 
d="M401 356c46 -22 132 -63 132 -168c0 -100 -83 -201 -253 -201c-113 0 -244 52 -244 179c0 126 115 162 173 179c-29 17 -103 56 -103 150c0 89 70 185 228 185c112 0 214 -56 214 -159c0 -88 -66 -140 -147 -165zM320 385c124 41 152 78 152 126c0 70 -64 108 -142 108
c-74 0 -145 -35 -145 -111c0 -47 30 -88 135 -123zM292 314c-59 -14 -97 -35 -113 -44c-23 -14 -64 -39 -64 -100c0 -78 70 -120 167 -120c132 0 170 75 170 124c0 33 -17 61 -33 76c-27 24 -52 34 -127 64z" />
    <glyph glyph-name="nine" unicode="9" 
d="M34 114l66 31c8 -17 17 -36 41 -58c28 -25 64 -40 105 -40c64 0 136 35 180 138c27 62 38 127 45 164c-16 -29 -66 -118 -190 -118c-120 0 -209 97 -209 215c0 132 105 236 244 236c119 0 236 -78 236 -277c0 -173 -89 -420 -311 -420c-76 0 -163 30 -207 129zM465 472
c0 65 -51 147 -148 147c-88 0 -167 -71 -167 -168c0 -92 70 -154 145 -154c71 0 170 54 170 175z" />
    <glyph glyph-name="colon" unicode=":" horiz-adv-x="250" 
d="M139 0h-110l18 112h110zM201 373h-110l19 112h110z" />
    <glyph glyph-name="semicolon" unicode=";" horiz-adv-x="250" 
d="M27 -149h-39l91 149h-50l18 112h110l-18 -112zM201 373h-110l19 112h110z" />
    <glyph glyph-name="less" unicode="&#x3c;" 
d="M510 566v-74l-353 -162l353 -161v-74l-433 203v65z" />
    <glyph glyph-name="equal" unicode="=" 
d="M76 455h466v-68h-466v68zM76 296h466v-68h-466v68z" />
    <glyph glyph-name="greater" unicode="&#x3e;" 
d="M77 95v74l353 161l-353 162v74l433 -203v-65z" />
    <glyph glyph-name="question" unicode="?" horiz-adv-x="498" 
d="M242 171h-69c10 102 21 146 92 180c93 43 111 52 135 87c15 22 20 45 20 67c0 79 -71 114 -128 114c-105 0 -142 -92 -159 -133l-68 28c19 44 71 171 229 171c117 0 207 -74 207 -181c0 -20 -4 -101 -79 -152c-32 -21 -67 -36 -102 -50c-51 -20 -70 -31 -78 -131zM230 0
h-100l16 96h100z" />
    <glyph glyph-name="at" unicode="@" horiz-adv-x="747" 
d="M558 508l-37 -227c-4 -28 -5 -45 -5 -50c0 -31 28 -31 33 -31c51 0 109 79 109 178c0 167 -145 245 -269 245c-170 0 -277 -141 -277 -291c0 -133 85 -287 295 -287c105 0 169 33 211 55l23 -54c-38 -19 -116 -59 -235 -59c-246 0 -355 179 -355 343
c0 187 136 350 346 350c143 0 320 -87 320 -295c0 -130 -78 -244 -168 -244c-32 0 -63 16 -76 37c-5 7 -8 17 -10 24c-24 -30 -53 -63 -109 -63c-81 0 -148 70 -148 175c0 114 75 202 174 202c66 0 91 -35 109 -61l8 53h61zM470 347c0 80 -51 107 -87 107
c-60 0 -105 -61 -105 -139c0 -69 36 -115 84 -115c62 0 108 77 108 147z" />
    <glyph glyph-name="A" unicode="A" horiz-adv-x="564" 
d="M387 195h-243l-96 -195h-76l326 667h93l116 -667h-86zM175 262h202l-52 307z" />
    <glyph glyph-name="B" unicode="B" horiz-adv-x="611" 
d="M42 0l112 667h209c80 0 116 -3 156 -30c42 -28 65 -75 65 -128c0 -117 -97 -149 -131 -160c96 -33 106 -117 106 -153c0 -60 -26 -124 -74 -157c-54 -36 -92 -39 -182 -39h-261zM176 316l-42 -250h145c84 0 118 1 156 30c26 20 44 66 44 109c0 35 -11 67 -41 89
c-30 21 -56 22 -127 22h-135zM224 603l-37 -224h126c74 0 110 3 149 32c23 17 42 55 42 95c0 39 -18 74 -55 88c-12 5 -27 10 -98 10z" />
    <glyph glyph-name="C" unicode="C" horiz-adv-x="576" 
d="M589 462l-72 -19c-7 47 -23 173 -157 173c-185 0 -221 -279 -221 -352c0 -145 73 -208 159 -208c110 0 158 107 180 157l68 -26c-46 -122 -126 -198 -250 -198c-190 0 -243 171 -243 289c0 168 98 405 307 405c111 0 217 -70 229 -221z" />
    <glyph glyph-name="D" unicode="D" horiz-adv-x="648" 
d="M42 0l111 667h185c68 0 173 -2 244 -127c37 -64 39 -141 39 -167c0 -137 -53 -230 -107 -289c-68 -73 -145 -84 -226 -84h-246zM224 604l-89 -538h134c56 0 114 2 175 54c65 56 95 170 95 259c0 88 -24 135 -49 165c-36 45 -89 60 -162 60h-104z" />
    <glyph glyph-name="E" unicode="E" horiz-adv-x="559" 
d="M42 0l112 667h415l-11 -66h-334l-37 -220h286l-11 -66h-286l-41 -244h361l-12 -71h-442z" />
    <glyph glyph-name="F" unicode="F" horiz-adv-x="507" 
d="M176 313l-53 -313h-81l112 667h407l-12 -68h-325l-37 -220h281l-11 -66h-281z" />
    <glyph glyph-name="G" unicode="G" horiz-adv-x="651" 
d="M342 333h253l-57 -341h-45l-10 81c-20 -29 -62 -90 -176 -90c-155 0 -253 128 -253 300c0 176 100 400 311 400c181 0 230 -143 246 -189l-72 -25c-28 92 -83 149 -174 149c-161 0 -226 -198 -226 -343c0 -170 95 -227 175 -227c84 0 131 54 157 102c21 39 29 85 34 118
h-174z" />
    <glyph glyph-name="H" unicode="H" horiz-adv-x="656" 
d="M643 667l-112 -667h-81l53 315h-327l-53 -315h-81l112 667h81l-47 -281h326l47 281h82z" />
    <glyph glyph-name="I" unicode="I" horiz-adv-x="248" 
d="M235 667l-112 -667h-81l111 667h82z" />
    <glyph glyph-name="J" unicode="J" horiz-adv-x="369" 
d="M362 667l-69 -412c-17 -102 -32 -189 -116 -236c-42 -23 -85 -29 -119 -29c-5 0 -48 0 -99 10l11 69c20 -5 37 -8 75 -8c47 0 97 17 118 44c23 30 31 65 42 130l72 432h85z" />
    <glyph glyph-name="K" unicode="K" horiz-adv-x="623" 
d="M630 667l-225 -233l158 -434h-85l-135 376l-189 -194l-31 -182h-81l112 667h81l-64 -380l366 380h93z" />
    <glyph glyph-name="L" unicode="L" horiz-adv-x="509" 
d="M454 0h-412l111 667h82l-100 -596h331z" />
    <glyph glyph-name="M" unicode="M" horiz-adv-x="815" 
d="M691 0h-82l103 612l-320 -612h-62l-119 602l-101 -602h-68l112 667h123l109 -547l285 547h131z" />
    <glyph glyph-name="N" unicode="N" horiz-adv-x="655" 
d="M530 0h-65l-262 570l-95 -570h-66l112 667h91l242 -532l89 532h65z" />
    <glyph glyph-name="O" unicode="O" horiz-adv-x="642" 
d="M617 392c0 -171 -89 -405 -310 -405c-164 0 -253 133 -253 299c0 163 95 394 311 394c147 0 252 -108 252 -288zM532 409c0 151 -93 204 -170 204c-180 0 -222 -243 -222 -344c0 -159 87 -215 167 -215c188 0 225 264 225 355z" />
    <glyph glyph-name="P" unicode="P" horiz-adv-x="557" 
d="M168 269l-45 -269h-81l111 667h183c65 0 130 -2 176 -43c39 -35 61 -91 61 -142c0 -50 -25 -123 -73 -161c-46 -36 -94 -52 -198 -52h-134zM224 601l-45 -265h92c64 0 112 0 146 17c46 23 71 79 71 128s-23 92 -55 107c-31 14 -76 14 -99 13h-110z" />
    <glyph glyph-name="Q" unicode="Q" horiz-adv-x="639" 
d="M505 -90l-10 -61c-36 -6 -61 -10 -92 -10c-76 0 -124 36 -124 111c0 11 1 20 3 37c-19 0 -92 16 -143 63c-74 68 -86 172 -86 228c0 179 102 402 311 402c144 0 252 -107 252 -290c0 -97 -28 -202 -85 -281c-69 -97 -135 -109 -186 -120c-2 -8 -3 -19 -3 -26
c0 -60 53 -60 77 -60c11 0 48 3 86 7zM527 416c0 73 -33 197 -164 197c-206 0 -221 -306 -221 -356c0 -136 74 -205 164 -205c149 0 221 165 221 364z" />
    <glyph glyph-name="R" unicode="R" horiz-adv-x="633" 
d="M369 292h-197l-49 -292h-81l112 667h208c81 0 134 -8 179 -43c32 -26 62 -70 62 -134c0 -66 -37 -161 -155 -183l94 -307h-86zM224 602l-41 -243h153c50 0 184 0 184 134c0 109 -112 109 -143 109h-153z" />
    <glyph glyph-name="S" unicode="S" horiz-adv-x="572" 
d="M544 528l-70 -27c-35 94 -109 121 -175 121c-107 0 -140 -70 -140 -117c0 -62 51 -89 97 -101c149 -38 181 -46 221 -83c48 -45 52 -99 52 -126c0 -129 -101 -209 -254 -209c-80 0 -143 23 -186 56c-53 39 -74 96 -85 129l73 27c17 -48 52 -145 199 -145
c144 0 171 94 171 133c0 84 -76 103 -117 112c-127 31 -253 61 -253 199c0 98 76 188 220 188c183 0 233 -123 247 -157z" />
    <glyph glyph-name="T" unicode="T" horiz-adv-x="488" 
d="M537 599h-193l-101 -599h-81l100 599h-193l11 68h468z" />
    <glyph glyph-name="U" unicode="U" horiz-adv-x="615" 
d="M611 667l-68 -407c-20 -125 -43 -176 -88 -217c-51 -46 -121 -58 -169 -58c-26 0 -98 3 -154 43c-66 47 -66 118 -66 145c0 24 1 34 16 124l61 370h82l-65 -387c-12 -64 -14 -78 -14 -103c0 -93 77 -125 142 -125c153 0 173 118 187 201l69 414h67z" />
    <glyph glyph-name="V" unicode="V" horiz-adv-x="529" 
d="M270 0h-72l-132 667h88l105 -539l259 539h77z" />
    <glyph glyph-name="W" unicode="W" horiz-adv-x="812" 
d="M593 0h-82l-64 532l-214 -532h-86l-66 667h82l53 -551l225 551h63l68 -551l223 551h68z" />
    <glyph glyph-name="X" unicode="X" horiz-adv-x="538" 
d="M494 0h-94l-132 281l-222 -281h-85l274 342l-156 325h91l121 -258l204 258h86l-256 -318z" />
    <glyph glyph-name="Y" unicode="Y" horiz-adv-x="512" 
d="M260 0h-84l46 279l-170 388h90l138 -316l230 316h82l-286 -388z" />
    <glyph glyph-name="Z" unicode="Z" horiz-adv-x="525" 
d="M547 667l-9 -55l-442 -541h376l-11 -71h-479l12 71l433 529h-334l11 67h443z" />
    <glyph glyph-name="bracketleft" unicode="[" horiz-adv-x="283" 
d="M179 -167h-182l140 834h181l-7 -45h-112l-125 -744h112z" />
    <glyph glyph-name="backslash" unicode="\" horiz-adv-x="469" 
d="M381 -167l-283 834h55l283 -834h-55z" />
    <glyph glyph-name="bracketright" unicode="]" horiz-adv-x="283" 
d="M105 667h181l-139 -834h-182l8 45h112l124 744h-112z" />
    <glyph glyph-name="asciicircum" unicode="^" 
d="M343 686l180 -369h-77l-146 299l-146 -299h-76l188 369h77z" />
    <glyph glyph-name="underscore" unicode="_" horiz-adv-x="500" 
d="M0 -75h500v-50h-500v50z" />
    <glyph glyph-name="quoteleft" unicode="&#x2018;" horiz-adv-x="237" 
d="M200 445h-97l16 94l98 128h39l-84 -128h43z" />
    <glyph glyph-name="a" unicode="a" horiz-adv-x="535" 
d="M428 0h-77c-2 50 2 70 8 96c-20 -29 -77 -110 -185 -110c-98 0 -158 67 -158 148c0 63 36 107 74 130c46 28 95 44 227 44c10 0 59 -2 74 -3c3 18 5 33 5 52c0 16 -2 53 -33 73c-32 21 -71 21 -81 21c-96 0 -128 -58 -143 -84l-72 31c37 71 110 112 209 112
c100 0 198 -41 198 -141c0 -26 -31 -219 -37 -256c-12 -73 -11 -92 -9 -113zM381 249c-18 2 -36 3 -66 3c-55 0 -215 0 -215 -121c0 -45 28 -82 88 -82c70 0 166 58 193 200z" />
    <glyph glyph-name="b" unicode="b" horiz-adv-x="538" 
d="M69 0h-33l111 667h77l-42 -251c49 70 102 91 153 91c105 0 168 -84 168 -212c0 -130 -78 -308 -236 -308c-99 0 -136 68 -154 101zM423 311c0 89 -44 135 -103 135c-108 0 -174 -152 -174 -257c0 -106 70 -143 120 -143c107 0 157 145 157 265z" />
    <glyph glyph-name="c" unicode="c" horiz-adv-x="474" 
d="M459 337l-75 -16c-9 68 -46 123 -114 123c-138 0 -153 -207 -153 -250c0 -114 64 -143 113 -143c86 0 122 85 137 119l62 -24c-49 -142 -156 -162 -207 -162c-102 0 -187 74 -187 223c0 151 89 304 238 304c90 0 174 -60 186 -174z" />
    <glyph glyph-name="d" unicode="d" horiz-adv-x="538" 
d="M420 0h-70l19 97c-28 -43 -72 -110 -171 -110c-123 0 -163 115 -163 208c0 117 71 311 236 311c101 0 133 -71 143 -93l43 254h74zM393 311c0 95 -66 135 -118 135c-125 0 -160 -185 -160 -262c0 -103 54 -137 104 -137c103 0 174 130 174 264z" />
    <glyph glyph-name="e" unicode="e" horiz-adv-x="520" 
d="M481 241h-365c-2 -15 -3 -25 -3 -39c0 -86 46 -152 132 -152c82 0 117 49 149 96l64 -30c-24 -39 -80 -130 -214 -130c-102 0 -211 64 -211 226c0 168 107 299 255 299c87 0 197 -46 197 -213c0 -24 -2 -40 -4 -57zM125 297h282c10 143 -91 155 -122 155
c-86 0 -143 -71 -160 -155z" />
    <glyph glyph-name="f" unicode="f" horiz-adv-x="300" 
d="M329 495l-10 -60h-120l-72 -435h-76l72 435h-92l10 60h92c17 104 59 187 202 187c19 0 32 -1 46 -3l-10 -60c-17 1 -25 2 -36 2c-68 0 -114 -28 -126 -126h120z" />
    <glyph glyph-name="g" unicode="g" horiz-adv-x="503" 
d="M527 590l-11 -64c-19 2 -28 2 -40 2c-19 0 -67 0 -85 -63c19 -15 65 -52 65 -122c0 -86 -65 -180 -195 -180c-46 0 -75 12 -96 20c-20 -9 -63 -29 -63 -65c0 -26 23 -33 79 -34c121 -2 178 -3 216 -23c35 -20 58 -57 58 -98c0 -153 -188 -153 -236 -153
c-130 0 -244 25 -244 119c0 41 26 83 92 107c-16 10 -39 24 -39 64c0 56 45 86 102 109c-15 12 -55 43 -55 115c0 90 70 175 200 175c30 0 45 -4 77 -13c16 46 38 109 134 109c17 0 29 -2 41 -5zM379 339c0 67 -51 103 -110 103c-69 0 -117 -49 -117 -118
c0 -54 32 -106 106 -106c62 0 121 38 121 121zM114 15c-56 -17 -64 -51 -64 -69c0 -32 25 -48 43 -56c48 -21 114 -23 142 -23c27 0 147 0 147 80c0 57 -61 57 -135 58c-66 1 -91 3 -133 10z" />
    <glyph glyph-name="h" unicode="h" horiz-adv-x="545" 
d="M223 667l-44 -264c24 37 71 106 165 106c69 0 141 -42 141 -136c0 -24 -6 -59 -8 -69l-50 -304h-75l50 304c2 12 6 37 6 61c0 60 -42 84 -82 84c-47 0 -146 -41 -180 -246l-34 -203h-76l111 667h76z" />
    <glyph glyph-name="i" unicode="i" horiz-adv-x="230" 
d="M112 0h-76l82 495h77zM221 576h-99l15 91h99z" />
    <glyph glyph-name="j" unicode="j" horiz-adv-x="229" 
d="M194 495l-78 -464c-12 -75 -19 -113 -46 -148c-14 -18 -52 -55 -123 -55c-26 0 -53 4 -68 6l10 58c14 -1 35 -3 52 -3c45 0 63 19 75 39c9 17 11 25 24 103l78 464h76zM221 576h-100l15 91h100z" />
    <glyph glyph-name="k" unicode="k" horiz-adv-x="490" 
d="M111 0h-76l112 667h76l-71 -421l264 249h89l-189 -176l123 -319h-81l-104 267l-117 -116z" />
    <glyph glyph-name="l" unicode="l" horiz-adv-x="229" 
d="M223 667l-112 -667h-76l112 667h76z" />
    <glyph glyph-name="m" unicode="m" horiz-adv-x="817" 
d="M698 0h-76l48 285c2 12 8 48 8 72c0 79 -62 87 -82 87c-35 0 -66 -20 -96 -59c-41 -53 -54 -131 -59 -164l-37 -221h-77l47 283c1 7 10 57 10 77c0 67 -46 86 -79 86c-70 0 -111 -82 -122 -106c-17 -37 -21 -61 -38 -162l-32 -178h-78l83 495h72l-13 -82
c33 42 74 93 149 93c69 0 111 -39 130 -107c41 65 94 108 161 108c76 0 139 -50 139 -135c0 -27 -6 -63 -7 -68z" />
    <glyph glyph-name="n" unicode="n" horiz-adv-x="548" 
d="M430 0h-73l48 284c5 30 8 58 8 71c0 33 -17 93 -93 93c-53 0 -95 -37 -122 -77c-37 -56 -54 -151 -61 -194l-31 -177h-71l83 495h66l-18 -111c17 33 67 124 174 124c92 0 146 -65 146 -143c0 -24 -4 -55 -8 -79z" />
    <glyph glyph-name="o" unicode="o" horiz-adv-x="521" 
d="M484 276c0 -130 -87 -291 -248 -291c-138 0 -199 112 -199 228c0 134 88 293 250 293c111 0 197 -77 197 -230zM403 302c0 46 -9 76 -24 97c-20 27 -55 47 -97 47c-133 0 -163 -178 -163 -250c0 -21 0 -150 121 -150c131 0 163 171 163 256z" />
    <glyph glyph-name="p" unicode="p" horiz-adv-x="536" 
d="M7 -167l110 662h71l-16 -103c19 28 72 112 166 112c82 0 162 -68 162 -209c0 -143 -85 -308 -230 -308c-91 0 -129 59 -147 86l-40 -240h-76zM417 306c0 128 -88 135 -106 135c-82 0 -167 -121 -167 -255c0 -107 68 -137 115 -137c157 0 158 249 158 257z" />
    <glyph glyph-name="q" unicode="q" horiz-adv-x="533" 
d="M497 495l-111 -662h-76l44 260c-38 -65 -86 -108 -156 -108c-64 0 -164 46 -164 205c0 169 107 314 235 314c95 0 132 -63 150 -93l44 84h34zM388 310c0 80 -49 135 -116 135c-120 0 -157 -176 -157 -263c0 -91 50 -135 103 -135c101 0 170 160 170 263z" />
    <glyph glyph-name="r" unicode="r" horiz-adv-x="339" 
d="M111 0h-76l83 495h76l-24 -129c64 117 115 145 202 143l-13 -79c-48 2 -99 2 -153 -78c-40 -59 -56 -119 -76 -241z" />
    <glyph glyph-name="s" unicode="s" horiz-adv-x="461" 
d="M419 388l-64 -27c-6 17 -17 44 -55 65c-9 5 -33 18 -74 18c-67 0 -99 -40 -99 -77c0 -51 44 -61 102 -75l31 -7c52 -12 148 -34 148 -140c0 -74 -59 -158 -194 -158c-163 0 -204 101 -218 135l71 23c9 -26 35 -97 149 -97c88 0 115 49 115 85c0 54 -49 66 -98 77l-25 7
c-59 14 -159 37 -159 138c0 62 46 149 179 149c24 0 147 0 191 -116z" />
    <glyph glyph-name="t" unicode="t" horiz-adv-x="307" 
d="M187 435l-44 -268c-2 -7 -8 -46 -8 -61c0 -52 46 -55 63 -55c20 0 34 1 67 5l-8 -61c-25 -3 -59 -6 -72 -6c-19 0 -51 2 -78 16c-47 25 -47 72 -47 93c0 28 3 48 13 103l39 234h-75l10 60h76l20 120l76 6l-22 -126h113l-10 -60h-113z" />
    <glyph glyph-name="u" unicode="u" horiz-adv-x="543" 
d="M507 495l-83 -495h-67l20 120c-22 -43 -70 -133 -180 -133c-22 0 -66 3 -103 43c-26 29 -33 58 -33 98c0 20 1 36 11 91l47 276h76l-50 -301c-3 -14 -9 -51 -9 -62c0 -53 34 -82 81 -82c39 0 82 17 126 84c42 63 53 124 61 171l32 190h71z" />
    <glyph glyph-name="v" unicode="v" horiz-adv-x="444" 
d="M218 0h-70l-101 495h82l75 -388l194 388h69z" />
    <glyph glyph-name="w" unicode="w" horiz-adv-x="674" 
d="M468 0h-57l-62 377l-157 -377h-62l-76 495h75l55 -372l156 372h63l59 -372l163 372h65z" />
    <glyph glyph-name="x" unicode="x" horiz-adv-x="436" 
d="M396 0h-86l-103 204l-160 -204h-78l205 257l-124 238h87l90 -177l138 177h74l-181 -230z" />
    <glyph glyph-name="y" unicode="y" horiz-adv-x="425" 
d="M459 495l-271 -522c-35 -66 -77 -147 -187 -147c-20 0 -35 2 -49 3l11 67c13 -2 26 -5 43 -5c46 0 87 18 121 88l17 35l-104 481h78l80 -376l195 376h66z" />
    <glyph glyph-name="z" unicode="z" horiz-adv-x="419" 
d="M358 0h-376l9 52l326 380h-253l10 63h355l-8 -51l-330 -382h277z" />
    <glyph glyph-name="braceleft" unicode="{" horiz-adv-x="268" 
d="M216 529l-28 -171c-13 -80 -48 -96 -80 -110c32 -17 46 -37 46 -76c0 -9 0 -20 -3 -36l-28 -162c-3 -15 -4 -38 -4 -42c0 -47 52 -48 80 -48l-8 -51c-54 -1 -139 -3 -139 89c0 25 4 46 5 53l27 160c2 10 3 22 3 32c0 18 -1 46 -45 59l8 48c48 13 64 42 72 87l29 176
c19 112 85 133 180 130l-8 -51c-75 -2 -97 -23 -107 -87z" />
    <glyph glyph-name="bar" unicode="|" horiz-adv-x="500" 
d="M228 750h75v-1000h-75v1000z" />
    <glyph glyph-name="braceright" unicode="}" horiz-adv-x="268" 
d="M227 274l-8 -48c-47 -12 -64 -41 -72 -87l-29 -176c-19 -114 -87 -133 -180 -130l9 51c74 2 96 23 106 87l28 171c13 81 48 96 80 110c-33 17 -46 38 -46 76c0 9 1 27 3 36l28 162c2 13 4 40 4 42c0 47 -53 48 -80 48l8 51c54 1 139 3 139 -89c0 -25 -3 -41 -7 -63
l-25 -150c-2 -10 -3 -22 -3 -32c0 -18 2 -47 45 -59z" />
    <glyph glyph-name="asciitilde" unicode="~" 
d="M502 413l43 -30c-21 -39 -60 -115 -139 -115c-35 0 -68 15 -93 26c-65 29 -90 40 -120 40c-21 0 -60 -14 -86 -74l-44 31c28 56 61 115 137 115c40 0 77 -17 112 -34c45 -22 74 -31 98 -31c47 0 74 38 92 72z" />
    <glyph glyph-name="exclamdown" unicode="&#xa1;" horiz-adv-x="267" 
d="M124 330h42l-45 -497h-110zM126 500h100l-16 -95h-100z" />
    <glyph glyph-name="cent" unicode="&#xa2;" 
d="M275 -49h-51l27 162c-127 31 -127 170 -127 188c0 110 68 241 199 242l22 131h51l-22 -136c83 -21 107 -80 121 -131l-56 -19c-18 53 -37 85 -74 96l-54 -322c41 3 76 30 106 93l50 -23c-22 -51 -62 -124 -166 -126zM261 168l53 319c-89 -11 -118 -123 -118 -197
c0 -48 14 -104 65 -122z" />
    <glyph glyph-name="sterling" unicode="&#xa3;" 
d="M311 0h-340l12 71c75 1 124 2 172 58c36 42 39 74 45 158v30h-105l9 56h98c1 78 2 153 57 222c37 46 92 77 152 77c89 0 125 -54 145 -85l-60 -41c-11 20 -32 61 -87 61c-34 0 -102 -18 -118 -113c-3 -21 -3 -29 -4 -103c0 -4 0 -14 -1 -18h141l-9 -56h-133
c-4 -113 -23 -186 -114 -246h139c99 0 134 1 185 76l55 -41c-68 -100 -117 -106 -239 -106z" />
    <glyph glyph-name="fraction" unicode="&#x2044;" horiz-adv-x="146" 
d="M-138 0h-63l513 667h64z" />
    <glyph glyph-name="yen" unicode="&#xa5;" 
d="M95 413h112l-103 254h85l127 -316l219 316h77l-179 -254h123l-8 -50h-150l-59 -84l-2 -12h194l-8 -50h-195l-36 -217h-78l36 217h-188l8 50h189l2 12l-34 84h-141z" />
    <glyph glyph-name="florin" unicode="&#x192;" 
d="M-36 -135l23 67c47 -4 82 5 97 12c48 21 63 62 90 140l140 404h-92l21 64h92l11 28c15 38 62 154 217 154c10 0 18 0 33 -1l-23 -66c-39 1 -110 1 -148 -96l-7 -19h116l-25 -64h-116l-150 -440c-57 -166 -133 -191 -279 -183z" />
    <glyph glyph-name="section" unicode="&#xa7;" 
d="M16 -35l86 14c10 -21 47 -91 157 -91c74 0 137 38 137 104c0 63 -52 80 -192 126c-98 31 -117 83 -117 134c0 57 31 104 116 150c-19 14 -59 44 -59 113c0 90 68 165 192 165c55 0 111 -12 154 -46c35 -28 45 -58 54 -84l-77 -8c-23 58 -73 78 -126 78
c-75 0 -117 -39 -117 -90c0 -55 38 -71 152 -113c53 -20 132 -50 132 -144c0 -71 -58 -109 -104 -140c27 -17 37 -23 46 -37c26 -36 30 -66 30 -90c0 -102 -81 -186 -224 -186c-94 0 -202 41 -240 145zM342 157c23 10 88 38 88 97c0 46 -35 68 -61 80c-14 7 -90 32 -106 39
c-60 -29 -94 -61 -94 -101c0 -29 15 -47 36 -61c18 -11 19 -12 137 -54z" />
    <glyph glyph-name="currency" unicode="&#xa4;" horiz-adv-x="600" 
d="M655 561l42 78c-25 21 -49 35 -70 43c-23 9 -52 13 -87 13c-75 0 -142 -27 -201 -80c-54 -49 -93 -110 -118 -183h-58l-29 -58h69c-3 -7 -4 -17 -7 -30c-3 -19 -5 -29 -5 -34h-51l-29 -58h75v-12c0 -71 17 -125 49 -170c39 -52 96 -78 171 -78c57 0 108 14 155 41l18 96
c-29 -24 -54 -41 -75 -50c-27 -12 -56 -18 -85 -18c-52 0 -90 21 -115 63c-19 33 -29 73 -29 121v7h217l31 58h-241c0 5 2 16 5 35c3 13 4 22 7 29h263l30 58h-275c20 53 46 96 78 130c39 43 82 64 130 64c55 0 100 -22 135 -65z" />
    <glyph glyph-name="quotesingle" unicode="'" horiz-adv-x="237" 
d="M231 667l-57 -255h-45l28 255h74z" />
    <glyph glyph-name="quotedblleft" unicode="&#x201c;" horiz-adv-x="373" 
d="M338 454h-95l15 91l95 122h37l-80 -122h43zM202 454h-97l15 91l96 122h38l-80 -122h43z" />
    <glyph glyph-name="guillemotleft" unicode="&#xab;" horiz-adv-x="337" 
d="M144 105h-36l-69 137l99 141h43l-70 -141zM267 105h-37l-65 137l99 141h48l-73 -141z" />
    <glyph glyph-name="guilsinglleft" unicode="&#x2039;" horiz-adv-x="212" 
d="M141 105h-36l-66 137l100 141h47l-73 -141z" />
    <glyph glyph-name="guilsinglright" unicode="&#x203a;" horiz-adv-x="212" 
d="M69 383h37l65 -136l-99 -142h-47l73 142z" />
    <glyph glyph-name="fi" unicode="&#xfb01;" horiz-adv-x="485" 
d="M128 0h-77l73 435h-93l10 60h93c26 121 61 188 182 188c27 0 43 -3 51 -4l-15 -59c-7 1 -18 2 -32 2c-84 0 -95 -55 -109 -127h120l-10 -60h-120zM367 0h-76l83 495h76zM478 579h-100l15 88h99z" />
    <glyph glyph-name="fl" unicode="&#xfb02;" horiz-adv-x="485" 
d="M128 0h-77l73 435h-93l10 60h93c26 126 65 188 188 188c22 0 33 -2 45 -4l-15 -60c-9 2 -17 3 -33 3c-81 0 -93 -50 -108 -127h120l-10 -60h-120zM367 0h-76l111 667h77z" />
    <glyph glyph-name="endash" unicode="&#x2013;" horiz-adv-x="500" 
d="M443 220h-395l9 57h395z" />
    <glyph glyph-name="dagger" unicode="&#x2020;" 
d="M327 667h72l-33 -195h186l-11 -66h-186l-96 -573h-71l96 573h-186l11 66h186z" />
    <glyph glyph-name="daggerdbl" unicode="&#x2021;" 
d="M327 667h72l-33 -195h186l-11 -66h-186l-51 -305h186l-12 -66h-185l-34 -202h-71l33 202h-185l11 66h186l51 305h-186l11 66h186z" />
    <glyph glyph-name="periodcentered" unicode="&#xb7;" horiz-adv-x="250" 
d="M171 191h-110l18 112h110z" />
    <glyph glyph-name="paragraph" unicode="&#xb6;" horiz-adv-x="587" 
d="M600 667l-8 -47h-66l-132 -787h-49l132 787h-48l-132 -787h-48l87 521h-53c-77 0 -183 0 -183 137c0 54 21 108 64 140c30 23 64 36 173 36h263zM294 401h50l36 219h-34c-59 0 -108 -1 -138 -37c-27 -32 -28 -81 -28 -91c0 -91 73 -91 114 -91z" />
    <glyph glyph-name="bullet" unicode="&#x2022;" horiz-adv-x="667" 
d="M435 343c0 -47 -37 -85 -85 -85s-85 37 -85 85c0 47 37 86 85 86s85 -39 85 -86z" />
    <glyph glyph-name="quotesinglbase" unicode="&#x201a;" horiz-adv-x="237" 
d="M44 94h97l-16 -94l-98 -128h-39l84 128h-43z" />
    <glyph glyph-name="quotedblbase" unicode="&#x201e;" horiz-adv-x="373" 
d="M140 94l-15 -94l-96 -121h-37l80 121h-43l15 94h96zM277 94l-15 -94l-96 -121h-38l80 121h-43l15 94h97z" />
    <glyph glyph-name="quotedblright" unicode="&#x201d;" horiz-adv-x="373" 
d="M140 667h96l-15 -91l-95 -121h-38l81 121h-44zM276 667h97l-15 -91l-96 -121h-37l79 121h-43z" />
    <glyph glyph-name="guillemotright" unicode="&#xbb;" horiz-adv-x="337" 
d="M192 383h36l69 -136l-99 -142h-42l69 142zM69 383h37l65 -136l-99 -142h-47l73 142z" />
    <glyph glyph-name="ellipsis" unicode="&#x2026;" horiz-adv-x="1000" 
d="M183 112l-18 -112h-110l18 112h110zM516 112l-18 -112h-110l18 112h110zM849 112l-18 -112h-110l18 112h110z" />
    <glyph glyph-name="perthousand" unicode="&#x2030;" horiz-adv-x="1132" 
d="M384 526c0 -90 -64 -195 -170 -195c-82 0 -138 67 -138 154s57 195 168 195c94 0 140 -83 140 -154zM323 542c0 46 -28 89 -81 89c-97 0 -105 -138 -105 -155c0 -38 20 -96 83 -96c73 0 103 85 103 162zM725 183c0 -97 -67 -194 -163 -194c-109 0 -146 93 -146 158
c0 86 68 191 167 191c95 0 142 -81 142 -155zM663 199c0 85 -65 91 -81 91c-75 0 -103 -92 -103 -152c0 -84 51 -100 80 -100c56 0 104 51 104 161zM1085 183c0 -97 -67 -194 -164 -194c-109 0 -146 93 -146 158c0 86 68 191 168 191c95 0 142 -81 142 -155zM1023 199
c0 85 -66 91 -81 91c-76 0 -104 -93 -104 -152c0 -84 51 -100 80 -100c56 0 105 50 105 161zM172 0h-64l521 667h62z" />
    <glyph glyph-name="questiondown" unicode="&#xbf;" horiz-adv-x="497" 
d="M257 329h69c-10 -98 -18 -145 -92 -180c-92 -43 -110 -52 -134 -87c-15 -22 -20 -46 -20 -68c0 -79 71 -113 127 -113c105 0 142 92 158 133l69 -28c-19 -45 -70 -171 -229 -171c-117 0 -207 74 -207 181c0 20 4 100 80 152c31 21 66 36 101 50c51 20 71 31 78 131z
M269 500h100l-16 -96h-100z" />
    <glyph glyph-name="grave" unicode="`" horiz-adv-x="500" 
d="M188 662l30 59l180 -112l-21 -39z" />
    <glyph glyph-name="acute" unicode="&#xb4;" horiz-adv-x="500" 
d="M461 662l-196 -92l-20 39l186 112z" />
    <glyph glyph-name="circumflex" unicode="&#x2c6;" horiz-adv-x="500" 
d="M465 583l-71 -10l-77 67l-99 -67l-70 10l181 127z" />
    <glyph glyph-name="tilde" unicode="&#x2dc;" horiz-adv-x="500" 
d="M442 674l37 -35c-23 -23 -49 -49 -97 -49c-24 0 -30 3 -84 26c-11 5 -25 9 -43 9c-37 0 -53 -18 -65 -32l-41 28c43 62 94 62 108 62c23 0 29 -3 84 -25c12 -5 26 -9 42 -9c31 0 47 14 59 25z" />
    <glyph glyph-name="macron" unicode="&#xaf;" horiz-adv-x="500" 
d="M461 603h-300l9 53h300z" />
    <glyph glyph-name="breve" unicode="&#x2d8;" horiz-adv-x="500" 
d="M184 702h54c1 -22 4 -70 75 -70c68 0 86 33 103 70h55c-11 -35 -40 -125 -161 -125c-104 0 -124 57 -126 125z" />
    <glyph glyph-name="dotaccent" unicode="&#x2d9;" horiz-adv-x="500" 
d="M315 689c31 0 54 -23 54 -51c0 -29 -25 -51 -54 -51s-53 23 -53 51c0 29 25 51 53 51z" />
    <glyph glyph-name="dieresis" unicode="&#xa8;" horiz-adv-x="500" 
d="M392 685c32 0 52 -24 52 -49c0 -28 -24 -50 -51 -50s-50 22 -50 49c0 29 24 50 49 50zM235 685c32 0 52 -24 52 -49c0 -28 -24 -50 -51 -50s-50 22 -50 49c0 29 24 50 49 50z" />
    <glyph glyph-name="ring" unicode="&#x2da;" horiz-adv-x="500" 
d="M318 732c43 0 82 -37 82 -85c0 -47 -37 -84 -84 -84c-46 0 -85 37 -85 85c0 43 34 84 87 84zM318 692c-31 0 -47 -24 -47 -44c0 -24 20 -45 45 -45c24 0 44 19 44 44c0 26 -21 45 -42 45z" />
    <glyph glyph-name="cedilla" unicode="&#xb8;" horiz-adv-x="500" 
d="M198 0h36l-20 -48c63 5 92 -26 92 -60c0 -39 -34 -77 -106 -77c-45 0 -68 13 -84 23l15 32c18 -9 37 -18 67 -18c38 0 56 17 56 37c0 32 -38 33 -58 33c-12 0 -21 -1 -33 -2z" />
    <glyph glyph-name="hungarumlaut" unicode="&#x2dd;" horiz-adv-x="500" 
d="M403 671l-156 -100l-24 38l147 112zM556 671l-155 -100l-25 38l148 112z" />
    <glyph glyph-name="ogonek" unicode="&#x2db;" horiz-adv-x="500" 
d="M406 -111l5 -32c-12 -5 -35 -16 -74 -16c-14 0 -84 1 -84 63c0 63 65 89 85 96h48c-38 -20 -73 -42 -73 -78c0 -39 38 -39 50 -39c20 0 32 3 43 6z" />
    <glyph glyph-name="caron" unicode="&#x2c7;" horiz-adv-x="500" 
d="M163 693l71 10l78 -66l98 66l70 -10l-180 -126z" />
    <glyph glyph-name="emdash" unicode="&#x2014;" horiz-adv-x="1000" 
d="M943 220h-895l9 57h895z" />
    <glyph glyph-name="AE" unicode="&#xc6;" horiz-adv-x="874" 
d="M799 0h-444l39 230h-194l-170 -230h-85l499 667h441l-11 -66h-337l-36 -220h287l-10 -65h-288l-41 -245h362zM245 293h159l47 281z" />
    <glyph glyph-name="ordfeminine" unicode="&#xaa;" horiz-adv-x="352" 
d="M321 366h-59c-2 20 0 34 1 41c-14 -14 -48 -49 -106 -49c-64 0 -104 42 -104 91c0 73 78 96 108 101c35 6 77 7 125 4c1 7 2 15 2 25c0 42 -32 53 -66 53c-55 0 -72 -27 -86 -51l-53 22c33 62 98 71 135 71c65 0 129 -26 129 -87c0 -18 -27 -159 -27 -185
c0 -19 0 -25 1 -36zM116 448c0 -26 16 -46 50 -46c43 0 97 35 113 112c-90 6 -163 -5 -163 -66z" />
    <glyph glyph-name="Lslash" unicode="&#x141;" horiz-adv-x="509" 
d="M454 0h-412l46 273l-72 -49l13 76l71 50l53 317h82l-47 -281l137 95l-13 -76l-137 -95l-40 -239h331z" />
    <glyph glyph-name="Oslash" unicode="&#xd8;" horiz-adv-x="642" 
d="M511 517l-316 -417c32 -32 72 -46 112 -46c188 0 225 264 225 355c0 44 -8 80 -21 108zM162 151l313 417c-32 32 -75 45 -113 45c-180 0 -222 -243 -222 -344c0 -49 8 -88 22 -118zM642 693l-81 -108c35 -47 56 -113 56 -193c0 -171 -89 -405 -310 -405
c-64 0 -116 20 -156 54l-47 -62h-71l79 105c-38 53 -58 124 -58 202c0 163 95 394 311 394c61 0 114 -18 155 -52l49 65h73z" />
    <glyph glyph-name="OE" unicode="&#x152;" horiz-adv-x="977" 
d="M641 600l-36 -219h285l-11 -65h-285l-41 -245h361l-12 -71h-443l5 41c-28 -21 -71 -52 -150 -52c-167 0 -259 130 -259 296c0 180 102 395 315 395c38 0 125 -7 190 -80l11 67h416l-11 -67h-335zM488 173l55 325c-28 79 -103 115 -173 115c-179 0 -230 -231 -230 -338
c0 -40 6 -107 43 -156c26 -35 76 -63 135 -63c32 0 64 9 91 25c52 30 69 68 79 92z" />
    <glyph glyph-name="ordmasculine" unicode="&#xba;" horiz-adv-x="352" 
d="M56 499c0 82 56 175 159 175c94 0 128 -75 128 -134c0 -118 -84 -180 -158 -180c-87 0 -129 65 -129 139zM282 550c0 49 -24 82 -71 82c-76 0 -94 -101 -94 -142c0 -55 24 -87 71 -87c56 0 94 59 94 147z" />
    <glyph glyph-name="ae" unicode="&#xe6;" horiz-adv-x="841" 
d="M136 368l-70 30c11 19 28 49 70 75c39 24 84 35 130 35c26 0 76 -4 122 -28c27 -15 40 -33 50 -47c58 57 113 74 172 74c113 0 195 -74 195 -208c0 -24 -2 -40 -4 -58h-360c-2 -13 -4 -26 -4 -43c0 -104 68 -151 132 -151c85 0 128 66 147 96l63 -28
c-56 -98 -133 -130 -207 -130c-116 0 -172 65 -199 132c-22 -33 -87 -130 -206 -130c-92 0 -153 61 -153 144c0 82 59 142 140 161c18 4 61 14 136 14c25 0 40 -1 88 -4c3 14 6 28 6 50c0 28 -2 98 -113 98c-88 0 -121 -58 -135 -82zM450 295h279c2 26 2 59 -12 90
c-21 42 -64 66 -112 66c-65 0 -135 -47 -155 -156zM370 248c-18 2 -37 4 -70 4c-85 0 -134 -13 -165 -38c-25 -19 -41 -55 -41 -84c0 -23 11 -82 85 -82c98 0 179 105 191 200z" />
    <glyph glyph-name="dotlessi" unicode="&#x131;" horiz-adv-x="230" 
d="M112 0h-76l82 495h76z" />
    <glyph glyph-name="lslash" unicode="&#x142;" horiz-adv-x="243" 
d="M229 667l-41 -250l67 47l-11 -70l-68 -47l-58 -347h-76l51 305l-68 -49l11 70l69 49l48 292h76z" />
    <glyph glyph-name="oslash" unicode="&#xf8;" horiz-adv-x="521" 
d="M530 521l-83 -98c12 -23 37 -65 37 -140c0 -154 -100 -298 -247 -298c-70 0 -106 28 -125 43l-48 -55h-62l75 93c-33 53 -40 104 -40 148c0 136 91 292 248 292c72 0 107 -27 127 -44l51 59h67zM393 370l-235 -293c13 -12 35 -31 80 -31c135 0 165 176 165 256
c0 35 -4 49 -10 68zM130 123l235 291c-11 10 -37 32 -85 32c-127 0 -161 -172 -161 -253c0 -23 4 -52 11 -70z" />
    <glyph glyph-name="oe" unicode="&#x153;" horiz-adv-x="896" 
d="M856 241h-362c-2 -15 -3 -26 -3 -40c0 -97 57 -151 134 -151c78 0 117 53 146 95l63 -31c-31 -47 -86 -127 -210 -127c-117 0 -162 69 -184 103c-15 -21 -39 -54 -89 -79c-33 -16 -70 -25 -106 -25c-128 0 -208 101 -208 230c0 125 86 291 258 291c113 0 154 -64 176 -98
c28 34 84 101 192 101c49 0 115 -15 158 -74c29 -40 39 -99 39 -147c0 -20 -2 -34 -4 -48zM420 300c0 56 -15 86 -31 106c-30 35 -73 41 -97 41c-152 0 -168 -204 -168 -249c0 -57 14 -86 28 -104c20 -26 55 -46 100 -46c114 0 168 129 168 252zM503 296h280
c9 92 -35 157 -122 157c-80 0 -137 -57 -158 -157z" />
    <glyph glyph-name="germandbls" unicode="&#xdf;" horiz-adv-x="554" 
d="M106 -30h-76l72 429h-51l11 61h50c16 72 54 249 241 249c107 0 163 -64 163 -131c0 -42 -24 -119 -126 -143c-10 -3 -49 -12 -103 -13c-5 -4 -8 -7 -8 -13c0 -13 24 -23 41 -29c90 -33 135 -51 169 -97c23 -32 29 -64 29 -88c0 -81 -61 -207 -230 -207
c-60 0 -98 16 -118 24l21 59c16 -6 49 -19 98 -19c86 0 146 56 146 124c0 52 -24 72 -112 116c-86 42 -111 59 -111 98c0 31 16 55 33 73c46 5 194 21 194 112c0 36 -30 72 -93 72c-64 0 -98 -35 -112 -53c-30 -38 -40 -97 -48 -147z" />
    <glyph glyph-name="oldcurrency" 
d="M39 149l86 85c-21 29 -45 68 -45 128c0 59 23 96 44 127l-87 85l41 41l86 -87c37 26 70 46 130 46c59 0 92 -21 128 -45l86 86l40 -41l-86 -84c24 -37 45 -70 45 -129c0 -58 -22 -92 -44 -126l86 -86l-39 -41l-88 87c-27 -19 -65 -45 -127 -45c-57 0 -95 22 -130 44
l-85 -86zM294 514c-87 0 -152 -71 -152 -152c0 -84 67 -152 152 -152c82 0 151 66 151 152c0 82 -67 152 -151 152z" />
    <glyph glyph-name="onesuperior" unicode="&#xb9;" horiz-adv-x="386" 
d="M358 266h-276l8 45h107l48 289c-40 -35 -89 -41 -121 -42l8 46c74 9 115 33 141 72h40l-61 -365h113z" />
    <glyph glyph-name="minus" unicode="&#x2212;" 
d="M75 368h466v-68h-466v68z" />
    <glyph glyph-name="degree" unicode="&#xb0;" 
d="M341 416c-69 0 -130 58 -130 132c0 72 59 132 133 132c73 0 132 -59 132 -132c0 -71 -57 -132 -135 -132zM341 473c46 0 78 35 78 75c0 42 -33 76 -76 76c-42 0 -75 -34 -75 -76c0 -44 36 -75 73 -75z" />
    <glyph glyph-name="oacute" unicode="&#xf3;" horiz-adv-x="521" 
d="M484 276c0 -130 -87 -291 -248 -291c-138 0 -199 112 -199 228c0 134 88 293 250 293c111 0 197 -77 197 -230zM403 302c0 46 -9 76 -24 97c-20 27 -55 47 -97 47c-133 0 -163 -178 -163 -250c0 -21 0 -150 121 -150c131 0 163 171 163 256zM472 662l-196 -92l-20 39
l186 112z" />
    <glyph glyph-name="Odieresis" unicode="&#xd6;" horiz-adv-x="642" 
d="M617 392c0 -171 -89 -405 -310 -405c-164 0 -253 133 -253 299c0 163 95 394 311 394c147 0 252 -108 252 -288zM532 409c0 151 -93 204 -170 204c-180 0 -222 -243 -222 -344c0 -159 87 -215 167 -215c188 0 225 264 225 355zM458 843c29 0 52 -22 52 -50
c0 -29 -25 -50 -52 -50s-51 22 -51 50s25 49 51 50zM301 842c32 0 52 -24 52 -49c0 -28 -24 -50 -51 -50s-50 22 -50 49c0 29 24 50 49 50z" />
    <glyph glyph-name="odieresis" unicode="&#xf6;" horiz-adv-x="521" 
d="M484 276c0 -130 -87 -291 -248 -291c-138 0 -199 112 -199 228c0 134 88 293 250 293c111 0 197 -77 197 -230zM403 302c0 46 -9 76 -24 97c-20 27 -55 47 -97 47c-133 0 -163 -178 -163 -250c0 -21 0 -150 121 -150c131 0 163 171 163 256zM403 685c32 0 52 -24 52 -49
c0 -28 -24 -50 -51 -50s-50 22 -50 49c0 29 24 50 49 50zM246 685c32 0 52 -24 52 -49c0 -28 -24 -50 -51 -50s-50 22 -50 49c0 29 24 50 49 50z" />
    <glyph glyph-name="Eacute" unicode="&#xc9;" horiz-adv-x="559" 
d="M42 0l112 667h415l-11 -66h-334l-37 -220h286l-11 -66h-286l-41 -244h361l-12 -71h-442zM482 816l-195 -86l-21 39l186 105z" />
    <glyph glyph-name="ucircumflex" unicode="&#xfb;" horiz-adv-x="543" 
d="M507 495l-83 -495h-67l20 120c-22 -43 -70 -133 -180 -133c-22 0 -66 3 -103 43c-26 29 -33 58 -33 98c0 20 1 36 11 91l47 276h76l-50 -301c-3 -14 -9 -51 -9 -62c0 -53 34 -82 81 -82c39 0 82 17 126 84c42 63 53 124 61 171l32 190h71zM487 583l-71 -10l-77 67
l-99 -67l-70 10l181 127z" />
    <glyph glyph-name="onequarter" unicode="&#xbc;" horiz-adv-x="917" 
d="M777 0h-56l16 95h-198l8 43l233 273h65l-45 -271h68l-7 -45h-68zM247 0h-63l514 667h63zM601 140h144l35 208zM358 266h-276l8 45h107l48 289c-40 -35 -89 -41 -121 -42l8 46c74 9 115 33 141 72h40l-61 -365h114z" />
    <glyph glyph-name="logicalnot" unicode="&#xac;" 
d="M542 454v-226h-73v158h-393v68h466z" />
    <glyph glyph-name="Ecircumflex" unicode="&#xca;" horiz-adv-x="559" 
d="M42 0l112 667h415l-11 -66h-334l-37 -220h286l-11 -66h-286l-41 -244h361l-12 -71h-442zM523 743l-71 -10l-79 60l-97 -60l-70 10l179 120z" />
    <glyph glyph-name="onehalf" unicode="&#xbd;" horiz-adv-x="917" 
d="M359 266h-276l7 45h107l49 289c-40 -35 -90 -41 -121 -42l7 46c74 9 115 33 141 72h41l-61 -365h113zM248 0h-63l513 667h64zM834 0h-300l9 54c62 36 147 89 210 137c22 17 62 52 62 96c0 50 -43 79 -88 79c-67 0 -87 -48 -105 -92l-47 16c26 76 73 122 153 122
c83 0 146 -56 146 -126c0 -57 -40 -100 -86 -131c-59 -41 -139 -87 -176 -106h230z" />
    <glyph glyph-name="Otilde" unicode="&#xd5;" horiz-adv-x="642" 
d="M617 392c0 -171 -89 -405 -310 -405c-164 0 -253 133 -253 299c0 163 95 394 311 394c147 0 252 -108 252 -288zM532 409c0 151 -93 204 -170 204c-180 0 -222 -243 -222 -344c0 -159 87 -215 167 -215c188 0 225 264 225 355zM518 830l37 -35c-23 -23 -50 -49 -98 -49
c-23 0 -29 3 -83 27c-11 5 -26 9 -43 9c-37 0 -53 -18 -66 -32l-40 28c42 62 93 62 107 62c23 0 29 -3 85 -26c12 -5 26 -9 42 -9c31 0 47 14 59 25z" />
    <glyph glyph-name="uacute" unicode="&#xfa;" horiz-adv-x="543" 
d="M507 495l-83 -495h-67l20 120c-22 -43 -70 -133 -180 -133c-22 0 -66 3 -103 43c-26 29 -33 58 -33 98c0 20 1 36 11 91l47 276h76l-50 -301c-3 -14 -9 -51 -9 -62c0 -53 34 -82 81 -82c39 0 82 17 126 84c42 63 53 124 61 171l32 190h71zM483 662l-196 -92l-20 39
l186 112z" />
    <glyph glyph-name="eacute" unicode="&#xe9;" horiz-adv-x="520" 
d="M481 241h-365c-2 -15 -3 -25 -3 -39c0 -86 46 -152 132 -152c82 0 117 49 149 96l64 -30c-24 -39 -80 -130 -214 -130c-102 0 -211 64 -211 226c0 168 107 299 255 299c87 0 197 -46 197 -213c0 -24 -2 -40 -4 -57zM125 297h282c10 143 -91 155 -122 155
c-86 0 -143 -71 -160 -155zM471 662l-196 -92l-20 39l186 112z" />
    <glyph glyph-name="iacute" unicode="&#xed;" horiz-adv-x="230" 
d="M112 0h-76l82 495h76zM326 662l-196 -92l-20 39l186 112z" />
    <glyph glyph-name="Egrave" unicode="&#xc8;" horiz-adv-x="559" 
d="M42 0l112 667h415l-11 -66h-334l-37 -220h286l-11 -66h-286l-41 -244h361l-12 -71h-442zM216 816l30 58l180 -105l-21 -39z" />
    <glyph glyph-name="icircumflex" unicode="&#xee;" horiz-adv-x="230" 
d="M112 0h-76l82 495h76zM330 583l-71 -10l-77 67l-99 -67l-70 10l181 127z" />
    <glyph glyph-name="mu" unicode="&#xb5;" 
d="M21 -168l112 663h74l-48 -286c-4 -23 -7 -47 -7 -60c0 -67 51 -101 104 -101c48 0 138 25 162 169l46 277h74l-82 -494h-74l15 85c-22 -33 -62 -97 -151 -97c-79 0 -102 51 -112 73l-38 -229h-75z" />
    <glyph glyph-name="brokenbar" unicode="&#xa6;" horiz-adv-x="500" 
d="M303 675v-350h-75v350h75zM303 175v-350h-75v350h75z" />
    <glyph glyph-name="thorn" unicode="&#xfe;" horiz-adv-x="536" 
d="M7 -167l140 834h77l-44 -262c19 26 71 99 159 99c82 0 161 -68 161 -209c0 -142 -84 -308 -228 -308c-92 0 -131 59 -149 86l-40 -240h-76zM145 186c0 -106 68 -137 115 -137c122 0 157 164 157 257c0 128 -87 135 -105 135c-83 0 -167 -122 -167 -255z" />
    <glyph glyph-name="Aring" unicode="&#xc5;" horiz-adv-x="564" 
d="M387 195h-243l-96 -195h-76l326 667h93l116 -667h-86zM175 262h202l-52 307zM355 886c44 0 85 -38 85 -88c0 -48 -40 -87 -87 -87c-48 0 -89 39 -89 88c0 44 36 87 91 87zM355 842c-31 0 -47 -23 -47 -44c0 -24 20 -44 45 -44c24 0 43 19 43 44s-20 44 -41 44z" />
    <glyph glyph-name="yacute" unicode="&#xfd;" horiz-adv-x="425" 
d="M459 495l-271 -522c-35 -66 -77 -147 -187 -147c-20 0 -35 2 -49 3l11 67c13 -2 26 -5 43 -5c46 0 87 18 121 88l17 35l-104 481h78l80 -376l195 376h66zM424 662l-196 -92l-20 39l186 112z" />
    <glyph glyph-name="Ydieresis" unicode="&#x178;" horiz-adv-x="512" 
d="M260 0h-84l46 279l-170 388h90l138 -316l230 316h82l-286 -388zM418 843c29 0 52 -22 52 -50c0 -29 -25 -50 -52 -50s-51 22 -51 50s25 49 51 50zM261 842c32 0 52 -24 52 -49c0 -28 -24 -50 -51 -50s-50 22 -50 49c0 29 24 50 49 50z" />
    <glyph glyph-name="trademark" unicode="&#x2122;" horiz-adv-x="795" 
d="M360 622h-118l-56 -335h-61l56 335h-117l7 45h296zM756 287h-60l53 318l-176 -318h-46l-73 313l-52 -313h-52l63 380h85l69 -296l163 296h90z" />
    <glyph glyph-name="registered" unicode="&#xae;" horiz-adv-x="485" 
d="M233 445l-16 -88h-47l40 221h90c26 0 44 -2 59 -14c13 -11 24 -28 24 -48c0 -49 -41 -62 -54 -66l29 -93h-50l-25 88h-50zM250 541l-10 -59h54c13 0 41 0 41 32c0 27 -28 27 -41 27h-44zM67 467c0 116 93 207 206 207c112 0 206 -91 206 -207c0 -114 -93 -206 -206 -206
c-114 0 -206 92 -206 206zM97 467c0 -97 79 -176 176 -176c96 0 176 79 176 176c0 99 -80 177 -176 177c-97 0 -176 -78 -176 -177z" />
    <glyph glyph-name="ocircumflex" unicode="&#xf4;" horiz-adv-x="521" 
d="M484 276c0 -130 -87 -291 -248 -291c-138 0 -199 112 -199 228c0 134 88 293 250 293c111 0 197 -77 197 -230zM403 302c0 46 -9 76 -24 97c-20 27 -55 47 -97 47c-133 0 -163 -178 -163 -250c0 -21 0 -150 121 -150c131 0 163 171 163 256zM476 583l-71 -10l-77 67
l-99 -67l-70 10l181 127z" />
    <glyph glyph-name="Agrave" unicode="&#xc0;" horiz-adv-x="564" 
d="M387 195h-243l-96 -195h-76l326 667h93l116 -667h-86zM175 262h202l-52 307zM216 816l30 58l180 -105l-21 -39z" />
    <glyph glyph-name="Scaron" unicode="&#x160;" horiz-adv-x="572" 
d="M544 528l-70 -27c-35 94 -109 121 -175 121c-107 0 -140 -70 -140 -117c0 -62 51 -89 97 -101c149 -38 181 -46 221 -83c48 -45 52 -99 52 -126c0 -129 -101 -209 -254 -209c-80 0 -143 23 -186 56c-53 39 -74 96 -85 129l73 27c17 -48 52 -145 199 -145
c144 0 171 94 171 133c0 84 -76 103 -117 112c-127 31 -253 61 -253 199c0 98 76 188 220 188c183 0 233 -123 247 -157zM171 847l71 10l79 -60l97 60l70 -10l-179 -120z" />
    <glyph glyph-name="Ugrave" unicode="&#xd9;" horiz-adv-x="615" 
d="M611 667l-68 -407c-20 -125 -43 -176 -88 -217c-51 -46 -121 -58 -169 -58c-26 0 -98 3 -154 43c-66 47 -66 118 -66 145c0 24 1 34 16 124l61 370h82l-65 -387c-12 -64 -14 -78 -14 -103c0 -93 77 -125 142 -125c153 0 173 118 187 201l69 414h67zM216 816l30 58
l180 -105l-21 -39z" />
    <glyph glyph-name="Edieresis" unicode="&#xcb;" horiz-adv-x="559" 
d="M42 0l112 667h415l-11 -66h-334l-37 -220h286l-11 -66h-286l-41 -244h361l-12 -71h-442zM448 843c29 0 52 -22 52 -50c0 -29 -25 -50 -52 -50s-51 22 -51 50s25 49 51 50zM291 842c32 0 52 -24 52 -49c0 -28 -24 -50 -51 -50s-50 22 -50 49c0 29 24 50 49 50z" />
    <glyph glyph-name="Uacute" unicode="&#xda;" horiz-adv-x="615" 
d="M611 667l-68 -407c-20 -125 -43 -176 -88 -217c-51 -46 -121 -58 -169 -58c-26 0 -98 3 -154 43c-66 47 -66 118 -66 145c0 24 1 34 16 124l61 370h82l-65 -387c-12 -64 -14 -78 -14 -103c0 -93 77 -125 142 -125c153 0 173 118 187 201l69 414h67zM557 816l-195 -86
l-21 39l186 105z" />
    <glyph glyph-name="otilde" unicode="&#xf5;" horiz-adv-x="521" 
d="M484 276c0 -130 -87 -291 -248 -291c-138 0 -199 112 -199 228c0 134 88 293 250 293c111 0 197 -77 197 -230zM403 302c0 46 -9 76 -24 97c-20 27 -55 47 -97 47c-133 0 -163 -178 -163 -250c0 -21 0 -150 121 -150c131 0 163 171 163 256zM453 674l37 -35
c-23 -23 -49 -49 -97 -49c-24 0 -30 3 -84 26c-11 5 -25 9 -43 9c-37 0 -53 -18 -65 -32l-41 28c43 62 94 62 108 62c23 0 29 -3 84 -25c12 -5 26 -9 42 -9c31 0 47 14 59 25z" />
    <glyph glyph-name="ntilde" unicode="&#xf1;" horiz-adv-x="548" 
d="M430 0h-73l48 284c5 30 8 58 8 71c0 33 -17 93 -93 93c-53 0 -95 -37 -122 -77c-37 -56 -54 -151 -61 -194l-31 -177h-71l83 495h66l-18 -111c17 33 67 124 174 124c92 0 146 -65 146 -143c0 -24 -4 -55 -8 -79zM466 674l37 -35c-23 -23 -49 -49 -97 -49
c-24 0 -30 3 -84 26c-11 5 -25 9 -43 9c-37 0 -53 -18 -65 -32l-41 28c43 62 94 62 108 62c23 0 29 -3 84 -25c12 -5 26 -9 42 -9c31 0 47 14 59 25z" />
    <glyph glyph-name="ydieresis" unicode="&#xff;" horiz-adv-x="425" 
d="M459 495l-271 -522c-35 -66 -77 -147 -187 -147c-20 0 -35 2 -49 3l11 67c13 -2 26 -5 43 -5c46 0 87 18 121 88l17 35l-104 481h78l80 -376l195 376h66zM355 685c32 0 52 -24 52 -49c0 -28 -24 -50 -51 -50s-50 22 -50 49c0 29 24 50 49 50zM198 685c32 0 52 -24 52 -49
c0 -28 -24 -50 -51 -50s-50 22 -50 49c0 29 24 50 49 50z" />
    <glyph glyph-name="Aacute" unicode="&#xc1;" horiz-adv-x="564" 
d="M387 195h-243l-96 -195h-76l326 667h93l116 -667h-86zM175 262h202l-52 307zM522 816l-195 -86l-21 39l186 105z" />
    <glyph glyph-name="eth" unicode="&#xf0;" horiz-adv-x="511" 
d="M115 197c0 -25 0 -149 121 -149c141 0 163 192 163 246c0 84 -49 139 -123 139c-118 0 -161 -144 -161 -236zM511 650l-106 -48c53 -90 79 -202 79 -289c0 -197 -104 -327 -252 -327c-155 0 -199 141 -199 224c0 111 76 285 253 285c43 0 66 -13 95 -32
c-11 39 -28 76 -46 108l-121 -55l-29 57l116 52c-12 16 -23 30 -34 42l65 30c14 -12 27 -27 38 -41l112 50z" />
    <glyph glyph-name="acircumflex" unicode="&#xe2;" horiz-adv-x="535" 
d="M428 0h-77c-2 50 2 70 8 96c-20 -29 -77 -110 -185 -110c-98 0 -158 67 -158 148c0 63 36 107 74 130c46 28 95 44 227 44c10 0 59 -2 74 -3c3 18 5 33 5 52c0 16 -2 53 -33 73c-32 21 -71 21 -81 21c-96 0 -128 -58 -143 -84l-72 31c37 71 110 112 209 112
c100 0 198 -41 198 -141c0 -26 -31 -219 -37 -256c-12 -73 -11 -92 -9 -113zM381 249c-18 2 -36 3 -66 3c-55 0 -215 0 -215 -121c0 -45 28 -82 88 -82c70 0 166 58 193 200zM483 583l-71 -10l-77 67l-99 -67l-70 10l181 127z" />
    <glyph glyph-name="aring" unicode="&#xe5;" horiz-adv-x="535" 
d="M428 0h-77c-2 50 2 70 8 96c-20 -29 -77 -110 -185 -110c-98 0 -158 67 -158 148c0 63 36 107 74 130c46 28 95 44 227 44c10 0 59 -2 74 -3c3 18 5 33 5 52c0 16 -2 53 -33 73c-32 21 -71 21 -81 21c-96 0 -128 -58 -143 -84l-72 31c37 71 110 112 209 112
c100 0 198 -41 198 -141c0 -26 -31 -219 -37 -256c-12 -73 -11 -92 -9 -113zM381 249c-18 2 -36 3 -66 3c-55 0 -215 0 -215 -121c0 -45 28 -82 88 -82c70 0 166 58 193 200zM336 732c43 0 82 -37 82 -85c0 -47 -37 -84 -84 -84c-46 0 -85 37 -85 85c0 43 34 84 87 84z
M336 692c-31 0 -47 -24 -47 -44c0 -24 20 -45 45 -45c24 0 44 19 44 44c0 26 -21 45 -42 45z" />
    <glyph glyph-name="Ograve" unicode="&#xd2;" horiz-adv-x="642" 
d="M617 392c0 -171 -89 -405 -310 -405c-164 0 -253 133 -253 299c0 163 95 394 311 394c147 0 252 -108 252 -288zM532 409c0 151 -93 204 -170 204c-180 0 -222 -243 -222 -344c0 -159 87 -215 167 -215c188 0 225 264 225 355zM216 816l30 58l180 -105l-21 -39z" />
    <glyph glyph-name="ccedilla" unicode="&#xe7;" horiz-adv-x="474" 
d="M225 -16l-14 -32c63 5 92 -26 92 -60c0 -39 -34 -77 -106 -77c-45 0 -69 13 -85 23l15 32c19 -9 37 -18 68 -18c38 0 56 17 56 37c0 32 -38 33 -58 33c-13 0 -22 -1 -34 -2l30 67c-108 19 -154 113 -154 220c0 151 89 304 238 304c90 0 174 -60 186 -174l-75 -16
c-9 68 -45 123 -113 123c-139 0 -154 -207 -154 -249c0 -115 65 -144 113 -144c86 0 122 85 137 119l62 -23c-46 -134 -142 -161 -204 -163z" />
    <glyph glyph-name="multiply" unicode="&#xd7;" 
d="M459 136l-151 150l-151 -150l-48 47l151 151l-151 151l48 48l151 -151l151 151l47 -48l-150 -151l150 -151z" />
    <glyph glyph-name="divide" unicode="&#xf7;" 
d="M307 234c26 0 47 -21 47 -47s-21 -47 -47 -47s-47 21 -47 47s21 47 47 47zM307 528c26 0 47 -21 47 -47s-21 -47 -47 -47c-25 0 -47 20 -47 47s22 47 47 47zM74 368h467v-68h-467v68z" />
    <glyph glyph-name="twosuperior" unicode="&#xb2;" horiz-adv-x="386" 
d="M347 266h-300l9 54c73 44 151 93 210 138c23 18 62 53 62 97c0 49 -43 78 -88 78c-67 0 -87 -48 -105 -92l-47 17c26 75 73 122 153 122c82 0 146 -56 146 -126c0 -73 -48 -122 -262 -239h230z" />
    <glyph glyph-name="Ntilde" unicode="&#xd1;" horiz-adv-x="655" 
d="M530 0h-65l-262 570l-95 -570h-66l112 667h91l242 -532l89 532h65zM538 830l37 -35c-23 -23 -50 -49 -98 -49c-23 0 -29 3 -83 27c-11 5 -26 9 -43 9c-37 0 -53 -18 -66 -32l-40 28c42 62 93 62 107 62c23 0 29 -3 85 -26c12 -5 26 -9 42 -9c31 0 47 14 59 25z" />
    <glyph glyph-name="ugrave" unicode="&#xf9;" horiz-adv-x="543" 
d="M507 495l-83 -495h-67l20 120c-22 -43 -70 -133 -180 -133c-22 0 -66 3 -103 43c-26 29 -33 58 -33 98c0 20 1 36 11 91l47 276h76l-50 -301c-3 -14 -9 -51 -9 -62c0 -53 34 -82 81 -82c39 0 82 17 126 84c42 63 53 124 61 171l32 190h71zM134 662l30 59l180 -112
l-21 -39z" />
    <glyph glyph-name="Ucircumflex" unicode="&#xdb;" horiz-adv-x="615" 
d="M611 667l-68 -407c-20 -125 -43 -176 -88 -217c-51 -46 -121 -58 -169 -58c-26 0 -98 3 -154 43c-66 47 -66 118 -66 145c0 24 1 34 16 124l61 370h82l-65 -387c-12 -64 -14 -78 -14 -103c0 -93 77 -125 142 -125c153 0 173 118 187 201l69 414h67zM543 743l-71 -10
l-79 60l-97 -60l-70 10l179 120z" />
    <glyph glyph-name="Atilde" unicode="&#xc3;" horiz-adv-x="564" 
d="M387 195h-243l-96 -195h-76l326 667h93l116 -667h-86zM175 262h202l-52 307zM468 830l37 -35c-23 -23 -50 -49 -98 -49c-23 0 -29 3 -83 27c-11 5 -26 9 -43 9c-37 0 -53 -18 -66 -32l-40 28c42 62 93 62 107 62c23 0 29 -3 85 -26c12 -5 26 -9 42 -9c31 0 47 14 59 25z
" />
    <glyph glyph-name="zcaron" unicode="&#x17e;" horiz-adv-x="419" 
d="M358 0h-376l9 52l326 380h-253l10 63h355l-8 -51l-330 -382h277zM123 693l71 10l78 -66l98 66l70 -10l-180 -126z" />
    <glyph glyph-name="idieresis" unicode="&#xef;" horiz-adv-x="230" 
d="M112 0h-76l82 495h76zM257 685c32 0 52 -24 52 -49c0 -28 -24 -50 -51 -50s-50 22 -50 49c0 29 24 50 49 50zM100 685c32 0 52 -24 52 -49c0 -28 -24 -50 -51 -50s-50 22 -50 49c0 29 24 50 49 50z" />
    <glyph glyph-name="Acircumflex" unicode="&#xc2;" horiz-adv-x="564" 
d="M387 195h-243l-96 -195h-76l326 667h93l116 -667h-86zM175 262h202l-52 307zM508 743l-71 -10l-79 60l-97 -60l-70 10l179 120z" />
    <glyph glyph-name="Icircumflex" unicode="&#xce;" horiz-adv-x="248" 
d="M235 667l-112 -667h-81l111 667h82zM358 743l-71 -10l-79 60l-97 -60l-70 10l179 120z" />
    <glyph glyph-name="Yacute" unicode="&#xdd;" horiz-adv-x="512" 
d="M260 0h-84l46 279l-170 388h90l138 -316l230 316h82l-286 -388zM522 816l-195 -86l-21 39l186 105z" />
    <glyph glyph-name="Oacute" unicode="&#xd3;" horiz-adv-x="642" 
d="M617 392c0 -171 -89 -405 -310 -405c-164 0 -253 133 -253 299c0 163 95 394 311 394c147 0 252 -108 252 -288zM532 409c0 151 -93 204 -170 204c-180 0 -222 -243 -222 -344c0 -159 87 -215 167 -215c188 0 225 264 225 355zM532 816l-195 -86l-21 39l186 105z" />
    <glyph glyph-name="Adieresis" unicode="&#xc4;" horiz-adv-x="564" 
d="M387 195h-243l-96 -195h-76l326 667h93l116 -667h-86zM175 262h202l-52 307zM433 843c29 0 52 -22 52 -50c0 -29 -25 -50 -52 -50s-51 22 -51 50s25 49 51 50zM276 842c32 0 52 -24 52 -49c0 -28 -24 -50 -51 -50s-50 22 -50 49c0 29 24 50 49 50z" />
    <glyph glyph-name="Zcaron" unicode="&#x17d;" horiz-adv-x="525" 
d="M547 667l-9 -55l-442 -541h376l-11 -71h-479l12 71l433 529h-334l11 67h443zM191 847l71 10l79 -60l97 60l70 -10l-179 -120z" />
    <glyph glyph-name="agrave" unicode="&#xe0;" horiz-adv-x="535" 
d="M428 0h-77c-2 50 2 70 8 96c-20 -29 -77 -110 -185 -110c-98 0 -158 67 -158 148c0 63 36 107 74 130c46 28 95 44 227 44c10 0 59 -2 74 -3c3 18 5 33 5 52c0 16 -2 53 -33 73c-32 21 -71 21 -81 21c-96 0 -128 -58 -143 -84l-72 31c37 71 110 112 209 112
c100 0 198 -41 198 -141c0 -26 -31 -219 -37 -256c-12 -73 -11 -92 -9 -113zM381 249c-18 2 -36 3 -66 3c-55 0 -215 0 -215 -121c0 -45 28 -82 88 -82c70 0 166 58 193 200zM206 662l30 59l180 -112l-21 -39z" />
    <glyph glyph-name="threesuperior" unicode="&#xb3;" horiz-adv-x="386" 
d="M51 360l47 17c11 -23 36 -75 111 -75c51 0 96 30 96 79c0 31 -21 54 -42 62c-23 9 -41 9 -100 9l8 46c56 -2 71 -1 87 2c60 10 66 53 66 67c0 42 -40 66 -81 66c-60 0 -83 -43 -95 -64l-43 23c12 21 47 84 141 84c88 0 134 -56 134 -108c0 -67 -58 -86 -84 -95
c42 -14 66 -55 66 -94c0 -61 -56 -122 -151 -122c-52 0 -93 18 -120 43c-26 23 -33 43 -40 60z" />
    <glyph glyph-name="ograve" unicode="&#xf2;" horiz-adv-x="521" 
d="M484 276c0 -130 -87 -291 -248 -291c-138 0 -199 112 -199 228c0 134 88 293 250 293c111 0 197 -77 197 -230zM403 302c0 46 -9 76 -24 97c-20 27 -55 47 -97 47c-133 0 -163 -178 -163 -250c0 -21 0 -150 121 -150c131 0 163 171 163 256zM123 662l30 59l180 -112
l-21 -39z" />
    <glyph glyph-name="threequarters" unicode="&#xbe;" horiz-adv-x="917" 
d="M777 0h-55l16 95h-198l7 43l234 273h65l-45 -271h68l-8 -45h-68zM248 0h-63l513 667h63zM602 140h143l35 208zM51 360l47 17c11 -23 36 -75 111 -75c51 0 96 30 96 79c0 31 -21 54 -42 62c-23 9 -41 9 -100 9l8 46c56 -2 71 -1 87 2c60 10 66 53 66 67
c0 42 -40 66 -81 66c-60 0 -83 -43 -95 -64l-43 23c12 21 47 84 141 84c88 0 134 -56 134 -108c0 -67 -58 -86 -84 -95c42 -14 66 -55 66 -94c0 -61 -56 -122 -151 -122c-52 0 -93 18 -120 43c-26 23 -33 43 -40 60z" />
    <glyph glyph-name="Eth" unicode="&#xd0;" horiz-adv-x="648" 
d="M42 0l50 315h-67l11 66h67l45 286h185c68 0 174 -2 245 -127c36 -62 40 -136 40 -171c0 -107 -33 -207 -105 -285c-68 -73 -144 -84 -225 -84h-246zM220 604l-36 -223h160l-11 -66h-160l-39 -249h134c56 0 115 2 175 54c64 55 93 166 93 254c0 90 -25 139 -50 170
c-36 44 -89 60 -163 60h-103z" />
    <glyph glyph-name="plusminus" unicode="&#xb1;" 
d="M61 368h197v205h73v-205h197v-68h-197v-205h-73v205h-197v68zM61 35h467v-68h-467v68z" />
    <glyph glyph-name="udieresis" unicode="&#xfc;" horiz-adv-x="543" 
d="M507 495l-83 -495h-67l20 120c-22 -43 -70 -133 -180 -133c-22 0 -66 3 -103 43c-26 29 -33 58 -33 98c0 20 1 36 11 91l47 276h76l-50 -301c-3 -14 -9 -51 -9 -62c0 -53 34 -82 81 -82c39 0 82 17 126 84c42 63 53 124 61 171l32 190h71zM414 685c32 0 52 -24 52 -49
c0 -28 -24 -50 -51 -50s-50 22 -50 49c0 29 24 50 49 50zM257 685c32 0 52 -24 52 -49c0 -28 -24 -50 -51 -50s-50 22 -50 49c0 29 24 50 49 50z" />
    <glyph glyph-name="edieresis" unicode="&#xeb;" horiz-adv-x="520" 
d="M481 241h-365c-2 -15 -3 -25 -3 -39c0 -86 46 -152 132 -152c82 0 117 49 149 96l64 -30c-24 -39 -80 -130 -214 -130c-102 0 -211 64 -211 226c0 168 107 299 255 299c87 0 197 -46 197 -213c0 -24 -2 -40 -4 -57zM125 297h282c10 143 -91 155 -122 155
c-86 0 -143 -71 -160 -155zM402 685c32 0 52 -24 52 -49c0 -28 -24 -50 -51 -50s-50 22 -50 49c0 29 24 50 49 50zM245 685c32 0 52 -24 52 -49c0 -28 -24 -50 -51 -50s-50 22 -50 49c0 29 24 50 49 50z" />
    <glyph glyph-name="aacute" unicode="&#xe1;" horiz-adv-x="535" 
d="M428 0h-77c-2 50 2 70 8 96c-20 -29 -77 -110 -185 -110c-98 0 -158 67 -158 148c0 63 36 107 74 130c46 28 95 44 227 44c10 0 59 -2 74 -3c3 18 5 33 5 52c0 16 -2 53 -33 73c-32 21 -71 21 -81 21c-96 0 -128 -58 -143 -84l-72 31c37 71 110 112 209 112
c100 0 198 -41 198 -141c0 -26 -31 -219 -37 -256c-12 -73 -11 -92 -9 -113zM381 249c-18 2 -36 3 -66 3c-55 0 -215 0 -215 -121c0 -45 28 -82 88 -82c70 0 166 58 193 200zM479 662l-196 -92l-20 39l186 112z" />
    <glyph glyph-name="igrave" unicode="&#xec;" horiz-adv-x="230" 
d="M112 0h-76l82 495h76zM3 662l30 59l180 -112l-21 -39z" />
    <glyph glyph-name="Idieresis" unicode="&#xcf;" horiz-adv-x="248" 
d="M235 667l-112 -667h-81l111 667h82zM288 843c29 0 52 -22 52 -50c0 -29 -25 -50 -52 -50s-51 22 -51 50s25 49 51 50zM131 842c32 0 52 -24 52 -49c0 -28 -24 -50 -51 -50s-50 22 -50 49c0 29 24 50 49 50z" />
    <glyph glyph-name="adieresis" unicode="&#xe4;" horiz-adv-x="535" 
d="M428 0h-77c-2 50 2 70 8 96c-20 -29 -77 -110 -185 -110c-98 0 -158 67 -158 148c0 63 36 107 74 130c46 28 95 44 227 44c10 0 59 -2 74 -3c3 18 5 33 5 52c0 16 -2 53 -33 73c-32 21 -71 21 -81 21c-96 0 -128 -58 -143 -84l-72 31c37 71 110 112 209 112
c100 0 198 -41 198 -141c0 -26 -31 -219 -37 -256c-12 -73 -11 -92 -9 -113zM381 249c-18 2 -36 3 -66 3c-55 0 -215 0 -215 -121c0 -45 28 -82 88 -82c70 0 166 58 193 200zM410 685c32 0 52 -24 52 -49c0 -28 -24 -50 -51 -50s-50 22 -50 49c0 29 24 50 49 50zM253 685
c32 0 52 -24 52 -49c0 -28 -24 -50 -51 -50s-50 22 -50 49c0 29 24 50 49 50z" />
    <glyph glyph-name="Iacute" unicode="&#xcd;" horiz-adv-x="248" 
d="M235 667l-112 -667h-81l111 667h82zM382 816l-195 -86l-21 39l186 105z" />
    <glyph glyph-name="copyright" unicode="&#xa9;" horiz-adv-x="767" 
d="M569 407l-56 -13c-4 29 -13 103 -94 103c-107 0 -129 -159 -129 -202c0 -84 43 -122 95 -122c63 0 91 59 107 94l51 -18c-8 -23 -45 -122 -160 -122c-124 0 -157 105 -157 175c0 101 61 241 194 241c61 0 110 -31 131 -73c11 -22 15 -43 18 -63zM397 678
c190 0 345 -153 345 -345c0 -190 -154 -344 -345 -344c-190 0 -344 154 -344 344c0 192 155 345 344 345zM397 629c-161 0 -295 -130 -295 -296c0 -163 132 -295 295 -295c164 0 296 132 296 295c0 166 -134 296 -296 296z" />
    <glyph glyph-name="Igrave" unicode="&#xcc;" horiz-adv-x="248" 
d="M235 667l-112 -667h-81l111 667h82zM56 816l30 58l180 -105l-21 -39z" />
    <glyph glyph-name="Ccedilla" unicode="&#xc7;" horiz-adv-x="576" 
d="M296 -11l-17 -41c67 5 99 -28 99 -65c0 -44 -37 -84 -114 -84c-49 0 -75 15 -92 24l16 35c20 -9 41 -19 73 -19c42 0 61 19 61 41c0 34 -42 35 -63 35c-13 0 -23 -1 -36 -2l34 78c-161 22 -204 180 -204 287c0 168 98 405 307 405c111 0 217 -70 229 -221l-72 -19
c-6 47 -23 173 -157 173c-185 0 -221 -279 -221 -352c0 -145 74 -208 160 -208c109 0 157 107 179 157l68 -26c-12 -30 -39 -103 -106 -153c-61 -43 -115 -44 -144 -45z" />
    <glyph glyph-name="scaron" unicode="&#x161;" horiz-adv-x="461" 
d="M419 388l-64 -27c-6 17 -17 44 -55 65c-9 5 -33 18 -74 18c-67 0 -99 -40 -99 -77c0 -51 44 -61 102 -75l31 -7c52 -12 148 -34 148 -140c0 -74 -59 -158 -194 -158c-163 0 -204 101 -218 135l71 23c9 -26 35 -97 149 -97c88 0 115 49 115 85c0 54 -49 66 -98 77l-25 7
c-59 14 -159 37 -159 138c0 62 46 149 179 149c24 0 147 0 191 -116zM144 693l71 10l78 -66l98 66l70 -10l-180 -126z" />
    <glyph glyph-name="egrave" unicode="&#xe8;" horiz-adv-x="520" 
d="M481 241h-365c-2 -15 -3 -25 -3 -39c0 -86 46 -152 132 -152c82 0 117 49 149 96l64 -30c-24 -39 -80 -130 -214 -130c-102 0 -211 64 -211 226c0 168 107 299 255 299c87 0 197 -46 197 -213c0 -24 -2 -40 -4 -57zM125 297h282c10 143 -91 155 -122 155
c-86 0 -143 -71 -160 -155zM123 662l30 59l180 -112l-21 -39z" />
    <glyph glyph-name="Ocircumflex" unicode="&#xd4;" horiz-adv-x="642" 
d="M617 392c0 -171 -89 -405 -310 -405c-164 0 -253 133 -253 299c0 163 95 394 311 394c147 0 252 -108 252 -288zM532 409c0 151 -93 204 -170 204c-180 0 -222 -243 -222 -344c0 -159 87 -215 167 -215c188 0 225 264 225 355zM523 743l-71 -10l-79 60l-97 -60l-70 10
l179 120z" />
    <glyph glyph-name="Thorn" unicode="&#xde;" horiz-adv-x="563" 
d="M152 172l-29 -172h-81l112 667h81l-16 -97h101c70 0 131 -4 176 -43c39 -35 61 -92 61 -141c0 -51 -25 -124 -73 -162c-46 -36 -94 -52 -198 -52h-134zM208 504l-45 -265h92c64 0 112 0 146 17c46 23 71 78 71 128c0 49 -23 92 -55 107c-31 14 -76 14 -99 14z" />
    <glyph glyph-name="atilde" unicode="&#xe3;" horiz-adv-x="535" 
d="M428 0h-77c-2 50 2 70 8 96c-20 -29 -77 -110 -185 -110c-98 0 -158 67 -158 148c0 63 36 107 74 130c46 28 95 44 227 44c10 0 59 -2 74 -3c3 18 5 33 5 52c0 16 -2 53 -33 73c-32 21 -71 21 -81 21c-96 0 -128 -58 -143 -84l-72 31c37 71 110 112 209 112
c100 0 198 -41 198 -141c0 -26 -31 -219 -37 -256c-12 -73 -11 -92 -9 -113zM381 249c-18 2 -36 3 -66 3c-55 0 -215 0 -215 -121c0 -45 28 -82 88 -82c70 0 166 58 193 200zM460 674l37 -35c-23 -23 -49 -49 -97 -49c-24 0 -30 3 -84 26c-11 5 -25 9 -43 9
c-37 0 -53 -18 -65 -32l-41 28c43 62 94 62 108 62c23 0 29 -3 84 -25c12 -5 26 -9 42 -9c31 0 47 14 59 25z" />
    <glyph glyph-name="Udieresis" unicode="&#xdc;" horiz-adv-x="615" 
d="M611 667l-68 -407c-20 -125 -43 -176 -88 -217c-51 -46 -121 -58 -169 -58c-26 0 -98 3 -154 43c-66 47 -66 118 -66 145c0 24 1 34 16 124l61 370h82l-65 -387c-12 -64 -14 -78 -14 -103c0 -93 77 -125 142 -125c153 0 173 118 187 201l69 414h67zM478 843
c29 0 52 -22 52 -50c0 -29 -25 -50 -52 -50s-51 22 -51 50s25 49 51 50zM321 842c32 0 52 -24 52 -49c0 -28 -24 -50 -51 -50s-50 22 -50 49c0 29 24 50 49 50z" />
    <glyph glyph-name="ecircumflex" unicode="&#xea;" horiz-adv-x="520" 
d="M481 241h-365c-2 -15 -3 -25 -3 -39c0 -86 46 -152 132 -152c82 0 117 49 149 96l64 -30c-24 -39 -80 -130 -214 -130c-102 0 -211 64 -211 226c0 168 107 299 255 299c87 0 197 -46 197 -213c0 -24 -2 -40 -4 -57zM125 297h282c10 143 -91 155 -122 155
c-86 0 -143 -71 -160 -155zM475 583l-71 -10l-77 67l-99 -67l-70 10l181 127z" />
    <glyph glyph-name="nbspace" unicode="&#xa0;" horiz-adv-x="290" 
 />
    <glyph glyph-name="apple" unicode="&#xf8ff;" horiz-adv-x="500" 
 />
    <glyph glyph-name="lozenge" unicode="&#x25ca;" horiz-adv-x="593" 
d="M500 356l-171 -391h-67l-170 391l170 391h67zM430 356l-135 320l-133 -320l133 -320z" />
    <glyph glyph-name="approxequal" unicode="&#x2248;" horiz-adv-x="593" 
d="M532 408c-7 -73 -45 -141 -127 -141c-85 0 -205 72 -274 72c-45 0 -71 -37 -77 -78l-49 -1c10 71 44 144 127 144c86 0 200 -72 276 -72c46 0 69 35 77 76h47zM531 233c-8 -72 -43 -142 -126 -142c-86 0 -205 73 -275 73c-44 0 -71 -39 -77 -79h-48c9 71 43 144 126 144
c87 0 200 -72 277 -72c46 0 68 36 76 76h47z" />
    <glyph glyph-name="Delta" unicode="&#x394;" horiz-adv-x="672" 
d="M583 0h-645l432 712h78zM496 67l-101 565l-340 -565h441z" />
    <glyph glyph-name="radical" unicode="&#x221a;" horiz-adv-x="498" 
d="M478 786l-210 -1000h-71l-163 337l-47 -22l-26 55l107 51l155 -326l186 905h69z" />
    <glyph glyph-name="Omega" unicode="&#x3a9;" horiz-adv-x="746" 
d="M700 453c0 -163 -96 -283 -256 -314l-17 -80h196l-13 -59h-253l39 184c143 20 231 121 231 266c0 128 -85 206 -211 206c-165 0 -290 -147 -290 -307c0 -86 48 -157 138 -166l-39 -183h-246l13 59h185l19 84c-96 28 -144 114 -144 211c0 197 169 367 366 367
c160 0 282 -104 282 -268z" />
    <glyph glyph-name="partialdiff" unicode="&#x2202;" horiz-adv-x="504" 
d="M443 363c0 -150 -33 -375 -228 -375c-125 0 -202 106 -202 224c0 117 74 214 197 214c63 0 124 -32 164 -80v43c1 110 -38 273 -176 273c-45 0 -79 -20 -113 -47l-38 47c44 38 90 59 149 59c194 0 247 -199 247 -358zM369 279c-36 47 -89 88 -151 88
c-89 0 -136 -76 -136 -157c0 -79 45 -165 134 -165c112 0 153 144 153 234z" />
    <glyph glyph-name="summation" unicode="&#x2211;" horiz-adv-x="609" 
d="M583 -214h-558v60l326 443l-312 438v59h533v-67h-440l305 -429l-324 -437h470v-67z" />
    <glyph glyph-name="product" unicode="&#x220f;" horiz-adv-x="715" 
d="M646 -214h-73v933h-432v-933h-72v1000h577v-1000z" />
    <glyph glyph-name="pi" unicode="&#x3c0;" horiz-adv-x="567" 
d="M563 479l-14 -65h-77l-62 -291c-3 -15 -7 -31 -7 -46c0 -18 13 -23 29 -23s32 5 47 10l-12 -53c-23 -9 -43 -17 -68 -17c-35 0 -70 15 -70 55c0 21 5 43 9 64l64 301h-247l-88 -414h-69l87 414h-73l14 65h537z" />
    <glyph glyph-name="integral" unicode="&#x222b;" horiz-adv-x="549" 
d="M412 733c0 -23 -17 -36 -39 -36c-34 0 -37 42 -54 42c-46 0 -32 -173 -32 -186v-516c0 -88 2 -250 -124 -250c-30 0 -64 15 -64 50c0 18 17 33 35 33c30 0 35 -39 51 -39c35 0 30 142 30 154v22v495c0 93 -22 284 122 284c32 0 75 -14 75 -53z" />
    <glyph glyph-name="notequal" unicode="&#x2260;" horiz-adv-x="593" 
d="M521 117h-287l-76 -145l-58 30l61 115h-145v66h179l68 129h-247v65h282l77 147l58 -29l-62 -118h150v-65h-185l-68 -129h253v-66z" />
    <glyph glyph-name="infinity" unicode="&#x221e;" horiz-adv-x="750" 
d="M678 253c0 -86 -55 -152 -144 -152c-77 0 -137 56 -189 107c-57 -50 -109 -106 -191 -106c-87 0 -143 64 -143 149c0 83 54 152 141 152c81 0 139 -61 193 -113c50 53 110 114 188 114c88 0 145 -65 145 -151zM617 250c0 51 -29 91 -83 91c-55 0 -111 -55 -149 -91
c42 -38 92 -86 152 -86c51 0 80 38 80 86zM304 250c-39 33 -97 91 -153 91c-50 0 -80 -44 -80 -90c0 -51 32 -87 84 -87c53 0 113 50 149 86z" />
    <glyph glyph-name="lessequal" unicode="&#x2264;" horiz-adv-x="593" 
d="M521 78l-505 187v69l505 188v-71l-414 -152l414 -149v-72zM521 -28h-505v65h505v-65z" />
    <glyph glyph-name="greaterequal" unicode="&#x2265;" horiz-adv-x="593" 
d="M521 265l-505 -187v72l414 149l-414 152v71l505 -188v-69zM521 -28h-505v65h505v-65z" />
    <glyph glyph-name="Euro" unicode="&#x20ac;" horiz-adv-x="600" 
d="M655 561l42 78c-25 21 -49 35 -70 43c-23 9 -52 13 -87 13c-75 0 -142 -27 -201 -80c-54 -49 -93 -110 -118 -183h-58l-29 -58h69c-3 -7 -4 -17 -7 -30c-3 -19 -5 -29 -5 -34h-51l-29 -58h75v-12c0 -71 17 -125 49 -170c39 -52 96 -78 171 -78c57 0 108 14 155 41l18 96
c-29 -24 -54 -41 -75 -50c-27 -12 -56 -18 -85 -18c-52 0 -90 21 -115 63c-19 33 -29 73 -29 121v7h217l31 58h-241c0 5 2 16 5 35c3 13 4 22 7 29h263l30 58h-275c20 53 46 96 78 130c39 43 82 64 130 64c55 0 100 -22 135 -65z" />
    </font>
</defs>
</svg>
