<?xml version="1.0" standalone="no"?>
<!DOCTYPE svg PUBLIC "-//W3C//DTD SVG 1.1//EN" "http://www.w3.org/Graphics/SVG/1.1/DTD/svg11.dtd" >
<svg>
<metadata>
Created by FontForge 20120731 at Mon Aug 15 14:58:06 2016
 By www
ITC Franklin Gothic is a registered trademark of International Typeface Corporation.
</metadata>
<defs>
<font id="FranklinGothicLT-Book" horiz-adv-x="540" >
  <font-face 
    font-family="ITC Franklin Gothic LT"
    font-weight="500"
    font-stretch="normal"
    units-per-em="1000"
    panose-1="0 0 0 0 0 0 0 0 0 0"
    ascent="800"
    descent="-200"
    x-height="508"
    cap-height="686"
    bbox="-164 -250 1014 914"
    underline-thickness="50"
    underline-position="-75"
    stemh="62"
    stemv="78"
    unicode-range="U+0020-FB02"
  />
<missing-glyph horiz-adv-x="300" 
 />
    <glyph glyph-name=".notdef" horiz-adv-x="300" 
 />
    <glyph glyph-name="space" unicode=" " horiz-adv-x="300" 
 />
    <glyph glyph-name="exclam" unicode="!" horiz-adv-x="300" 
d="M93 107h105v-107h-105v107zM166 171h-43l-36 515h118z" />
    <glyph glyph-name="quotedbl" unicode="&#x22;" horiz-adv-x="460" 
d="M103 686h94v-111l-27 -135h-40l-27 135v111zM262 686h94v-111l-27 -135h-40l-27 135v111z" />
    <glyph glyph-name="numbersign" unicode="#" horiz-adv-x="600" 
d="M232 686h67l-36 -194h134l35 194h69l-35 -194h98v-63h-113l-27 -159h107v-63h-123l-38 -207h-66l37 207h-133l-40 -207h-65l37 207h-104v63h119l27 159h-109v63h123zM250 429l-27 -159h133l27 159h-133z" />
    <glyph glyph-name="dollar" unicode="$" horiz-adv-x="600" 
d="M335 -75h-61v96c-100 10 -183 59 -215 158l68 26c23 -65 77 -110 147 -114v233c-38 9 -76 20 -111 39c-47 27 -76 77 -76 132c0 113 85 166 187 179v83h61v-83c88 -7 162 -46 194 -132l-68 -23c-18 57 -69 86 -126 89v-215c42 -9 86 -19 124 -41c52 -31 83 -88 83 -147
c0 -54 -29 -108 -71 -140c-39 -29 -89 -39 -136 -44v-96zM335 310v-219c63 0 130 38 130 108c0 74 -67 103 -130 111zM274 402v206c-57 -3 -114 -37 -114 -101c0 -68 56 -94 114 -105z" />
    <glyph glyph-name="percent" unicode="%" horiz-adv-x="700" 
d="M179 0h-73l415 686h73zM530 347c101 0 142 -90 144 -179c0 -86 -44 -178 -142 -178s-142 92 -142 178c0 89 41 179 140 179zM530 296c-66 0 -79 -70 -79 -128c0 -50 12 -127 81 -127s81 77 81 127c-2 58 -15 128 -83 128zM166 696c101 0 142 -90 144 -179
c0 -86 -44 -178 -142 -178s-142 92 -142 178c0 89 41 179 140 179zM166 645c-66 0 -79 -70 -79 -128c0 -50 12 -127 81 -127s81 77 81 127c-2 58 -15 128 -83 128z" />
    <glyph glyph-name="ampersand" unicode="&#x26;" horiz-adv-x="680" 
d="M417 109l-166 240c-70 -31 -124 -67 -124 -151c0 -94 65 -143 156 -143c52 0 97 18 134 54zM226 554c0 -37 35 -89 60 -128l38 19c40 22 77 50 77 102c0 51 -42 86 -93 86c-46 0 -82 -33 -82 -79zM645 75v-71c-25 -4 -51 -7 -76 -7c-56 0 -76 26 -113 61
c-57 -47 -109 -68 -184 -68c-52 0 -112 16 -153 47c-48 36 -78 96 -78 155c0 103 79 171 177 209c-28 39 -65 100 -65 150c0 87 65 145 153 145c89 0 160 -52 160 -145c0 -92 -69 -140 -145 -174l145 -219c51 62 80 138 93 217l74 -15c-20 -93 -63 -183 -127 -254
c22 -24 41 -36 75 -36c17 0 39 1 64 5z" />
    <glyph glyph-name="quoteright" unicode="&#x2019;" horiz-adv-x="300" 
d="M197 686v-102l-67 -120h-36l50 120h-50v102h103z" />
    <glyph glyph-name="parenleft" unicode="(" horiz-adv-x="300" 
d="M251 -171h-52c-96 119 -149 277 -149 430s56 305 148 427h52c-83 -124 -126 -274 -126 -423c0 -157 43 -302 127 -434z" />
    <glyph glyph-name="parenright" unicode=")" horiz-adv-x="300" 
d="M101 -171h-52c84 132 127 277 127 434c0 149 -43 299 -126 423h52c92 -122 148 -274 148 -427s-53 -311 -149 -430z" />
    <glyph glyph-name="asterisk" unicode="*" horiz-adv-x="600" 
d="M470 344l-146 92l8 -171h-59l7 171l-147 -92l-31 51l153 80l-153 80l31 51l147 -92l-7 172h59l-8 -172l146 92l28 -51l-155 -80l155 -80z" />
    <glyph glyph-name="plus" unicode="+" horiz-adv-x="600" 
d="M267 547h65v-226h226v-65h-226v-226h-65v226h-226v65h226v226z" />
    <glyph glyph-name="comma" unicode="," horiz-adv-x="300" 
d="M213 115v-103l-75 -141h-43l60 129h-52v115h110z" />
    <glyph glyph-name="hyphen" unicode="-" horiz-adv-x="220" 
d="M213 288v-62h-213v62h213z" />
    <glyph glyph-name="period" unicode="." horiz-adv-x="300" 
d="M210 113v-113h-111v113h111z" />
    <glyph glyph-name="slash" unicode="/" horiz-adv-x="520" 
d="M457 686l-414 -857h-67l413 857h68z" />
    <glyph glyph-name="zero" unicode="0" horiz-adv-x="600" 
d="M303 -10c-189 0 -263 194 -263 352c0 156 66 354 255 354c94 0 159 -40 206 -119c41 -69 59 -157 59 -237c0 -152 -74 -350 -257 -350zM303 56c138 0 169 165 169 272c0 115 -26 302 -177 302c-141 0 -167 -175 -167 -282c0 -113 27 -292 175 -292z" />
    <glyph glyph-name="one" unicode="1" horiz-adv-x="600" 
d="M556 63v-63h-480v63h205v519c-55 -58 -118 -109 -189 -146v85c80 41 155 94 210 165h62v-623h192z" />
    <glyph glyph-name="two" unicode="2" horiz-adv-x="600" 
d="M537 71v-71h-487v71l278 218c62 55 122 114 122 202c0 85 -78 136 -156 136c-88 0 -160 -69 -164 -156l-80 24c25 125 118 201 247 201c119 0 239 -75 239 -205c0 -106 -74 -182 -150 -246l-227 -174h378z" />
    <glyph glyph-name="three" unicode="3" horiz-adv-x="600" 
d="M265 323h-66v67h66c36 0 77 2 110 18c37 18 62 59 62 99c0 82 -69 122 -145 122c-73 0 -137 -41 -160 -111l-77 22c39 104 135 156 244 156c113 0 225 -60 225 -184c0 -75 -59 -138 -132 -150v-2c90 -13 159 -74 159 -168c0 -60 -30 -116 -78 -150
c-52 -38 -118 -52 -182 -52c-116 0 -222 53 -261 166l80 27c25 -89 89 -124 179 -124c32 0 80 7 108 22c40 22 65 66 65 111c0 43 -23 80 -60 102c-40 25 -91 29 -137 29z" />
    <glyph glyph-name="four" unicode="4" horiz-adv-x="600" 
d="M455 0h-83v160h-338v57l314 469h107v-460h112v-66h-112v-160zM372 226v393l-249 -393h249z" />
    <glyph glyph-name="five" unicode="5" horiz-adv-x="600" 
d="M507 686l-7 -74h-337l-15 -221c46 45 99 74 165 74c134 0 239 -99 239 -233c0 -151 -120 -242 -264 -242c-103 0 -210 59 -240 162l74 25c27 -75 87 -119 168 -119c107 0 179 66 179 175c0 93 -66 163 -161 163c-68 0 -127 -36 -162 -93l-68 14l23 369h406z" />
    <glyph glyph-name="six" unicode="6" horiz-adv-x="600" 
d="M544 544l-77 -21c-24 64 -72 103 -143 103c-170 0 -200 -184 -200 -316h2c32 83 114 138 205 138c127 0 224 -99 224 -224c0 -135 -109 -234 -243 -234c-191 0 -267 170 -267 335c0 83 15 169 56 243c49 88 122 128 223 128c107 0 186 -52 220 -152zM310 59
c93 0 165 68 165 161c0 87 -68 160 -157 160c-93 0 -174 -74 -174 -168c0 -41 22 -85 54 -112c31 -29 70 -41 112 -41z" />
    <glyph glyph-name="seven" unicode="7" horiz-adv-x="600" 
d="M287 0h-88c-1 224 97 443 242 611h-372l9 75h453v-52c-69 -83 -129 -178 -172 -277c-41 -95 -72 -231 -72 -334v-23z" />
    <glyph glyph-name="eight" unicode="8" horiz-adv-x="600" 
d="M480 171c0 91 -113 129 -187 149c-73 -15 -174 -57 -174 -143c0 -97 107 -123 185 -123c72 0 176 29 176 117zM198 356c-70 26 -129 83 -129 163c0 127 128 177 238 177c48 0 104 -10 145 -34c50 -29 83 -78 83 -136c0 -84 -57 -132 -133 -158c82 -37 163 -83 163 -184
c0 -140 -140 -194 -261 -194c-54 0 -118 10 -166 36c-56 29 -103 85 -103 150c0 98 81 149 163 180zM156 527c0 -72 84 -115 146 -129c63 18 158 45 158 124c0 85 -79 110 -152 110c-65 0 -152 -27 -152 -105z" />
    <glyph glyph-name="nine" unicode="9" horiz-adv-x="600" 
d="M62 127l69 25c24 -62 80 -94 146 -94c158 0 199 178 198 303h-2c-41 -77 -111 -122 -201 -122c-129 0 -226 96 -226 224c0 132 105 233 238 233c202 0 270 -163 270 -337c0 -173 -71 -369 -277 -369c-98 0 -182 43 -215 137zM293 307c88 0 164 74 164 161
c0 95 -71 158 -166 158c-98 0 -163 -69 -163 -164c0 -94 74 -155 165 -155z" />
    <glyph glyph-name="colon" unicode=":" horiz-adv-x="300" 
d="M210 113v-113h-111v113h111zM210 508v-113h-111v113h111z" />
    <glyph glyph-name="semicolon" unicode=";" horiz-adv-x="300" 
d="M213 115v-103l-75 -141h-43l60 129h-52v115h110zM213 508v-113h-111v113h111z" />
    <glyph glyph-name="less" unicode="&#x3c;" horiz-adv-x="600" 
d="M544 512v-62l-395 -162l395 -162v-62l-489 207v34z" />
    <glyph glyph-name="equal" unicode="=" horiz-adv-x="600" 
d="M41 353v65h517v-65h-517zM41 159v65h517v-65h-517z" />
    <glyph glyph-name="greater" unicode="&#x3e;" horiz-adv-x="600" 
d="M544 305v-34l-489 -207v62l391 162l-391 162v62z" />
    <glyph glyph-name="question" unicode="?" 
d="M294 170h-72v43c0 65 2 109 65 144l44 25c48 27 84 61 84 120c0 81 -66 123 -141 123c-91 0 -141 -64 -154 -147l-75 16c20 128 104 202 235 202c117 0 224 -67 224 -193c0 -87 -54 -142 -128 -180c-19 -10 -52 -27 -66 -42c-18 -20 -16 -42 -16 -67v-44zM312 98v-98
h-102v98h102z" />
    <glyph glyph-name="at" unicode="@" horiz-adv-x="800" 
d="M604 505l-69 -211c-4 -14 -13 -40 -13 -51c1 -22 14 -37 38 -37c65 0 143 97 143 205c0 96 -101 221 -285 227c-162 5 -334 -171 -315 -334c25 -220 255 -302 451 -226l23 -54c-48 -17 -122 -34 -187 -34c-164 0 -334 109 -354 283c-26 229 168 434 410 423
c150 -7 311 -115 319 -276c8 -160 -111 -270 -211 -270c-35 0 -90 8 -95 60c-12 -11 -29 -36 -73 -51c-15 -5 -30 -7 -43 -7c-73 0 -127 71 -127 145c0 71 38 145 97 190c22 16 68 38 110 37c30 0 78 -13 97 -72l18 53h66zM491 408c-2 28 -18 61 -70 61
c-41 0 -62 -20 -84 -43c-33 -35 -48 -92 -48 -124c0 -21 4 -45 21 -67c19 -25 41 -31 60 -31c33 0 63 29 79 54c22 34 46 108 42 150z" />
    <glyph glyph-name="A" unicode="A" horiz-adv-x="560" 
d="M329 686l223 -686h-88l-69 200h-254l-61 -200h-72l222 686h99zM376 265l-105 329l-106 -329h211z" />
    <glyph glyph-name="B" unicode="B" horiz-adv-x="620" 
d="M167 73h168c38 0 80 4 110 28c29 22 43 55 43 92c0 41 -18 82 -50 107c-33 26 -76 26 -115 26h-156v-253zM167 392h133c43 0 90 -1 125 26c28 20 43 57 43 90c0 41 -16 70 -51 91c-30 17 -61 17 -95 17h-155v-224zM339 0h-258v686h259c53 0 95 -2 141 -32
c46 -31 72 -79 72 -135c0 -78 -46 -136 -121 -154v-2c85 -18 142 -86 142 -174c0 -58 -20 -109 -66 -145c-52 -41 -106 -44 -169 -44z" />
    <glyph glyph-name="C" unicode="C" horiz-adv-x="620" 
d="M497 231l78 -17c-32 -130 -109 -224 -254 -224c-198 0 -279 191 -279 360c0 177 87 346 286 346c138 0 219 -93 247 -219l-81 -15c-24 87 -67 162 -169 162c-149 0 -189 -162 -189 -281c0 -54 9 -121 32 -171c28 -61 81 -110 153 -110c105 0 154 79 176 169z" />
    <glyph glyph-name="D" unicode="D" horiz-adv-x="660" 
d="M85 0v686h217c98 0 171 -20 236 -97c59 -69 83 -155 83 -244c0 -84 -22 -167 -71 -236c-55 -77 -126 -109 -220 -109h-245zM171 73h126c79 0 142 18 187 87c34 52 50 123 50 185c0 70 -18 143 -63 199c-47 59 -102 70 -174 70h-126v-541z" />
    <glyph glyph-name="E" unicode="E" horiz-adv-x="560" 
d="M529 74v-74h-444v686h434v-74h-348v-218h276v-69h-276v-251h358z" />
    <glyph glyph-name="F" unicode="F" horiz-adv-x="480" 
d="M168 0h-86v686h420v-74h-334v-218h277v-69h-277v-325z" />
    <glyph glyph-name="G" unicode="G" horiz-adv-x="660" 
d="M600 346v-351h-53l-23 85c-43 -63 -115 -90 -190 -90c-92 0 -159 33 -214 106c-52 71 -72 153 -72 240c0 180 94 360 297 360c131 0 216 -74 248 -197l-81 -20c-17 86 -83 145 -173 145c-155 0 -198 -158 -198 -284c0 -59 11 -129 39 -182c31 -58 92 -98 160 -98
c106 0 172 72 172 176v38h-171v72h259z" />
    <glyph glyph-name="H" unicode="H" horiz-adv-x="660" 
d="M575 0h-86v326h-318v-326h-86v686h86v-285h318v285h86v-686z" />
    <glyph glyph-name="I" unicode="I" horiz-adv-x="260" 
d="M173 0h-86v686h86v-686z" />
    <glyph glyph-name="J" unicode="J" horiz-adv-x="400" 
d="M323 686v-462c0 -57 -3 -119 -40 -165c-40 -52 -104 -69 -166 -69c-34 0 -68 5 -100 14v70c29 -6 58 -10 88 -10c39 0 86 6 110 39c26 35 22 80 22 121v462h86z" />
    <glyph glyph-name="K" unicode="K" horiz-adv-x="620" 
d="M628 0h-95l-204 378l-157 -195v-183h-86v686h86v-398l309 398h93l-185 -240z" />
    <glyph glyph-name="L" unicode="L" horiz-adv-x="500" 
d="M489 76v-76h-405v686h86v-610h319z" />
    <glyph glyph-name="M" unicode="M" horiz-adv-x="820" 
d="M742 686v-686h-86v599h-4l-217 -599h-58l-222 599h-4v-599h-72v686h128l207 -549l202 549h126z" />
    <glyph glyph-name="N" unicode="N" horiz-adv-x="660" 
d="M583 686v-686h-84l-349 598v-598h-72v686h108l325 -559v559h72z" />
    <glyph glyph-name="O" unicode="O" horiz-adv-x="660" 
d="M331 -10c-197 0 -283 176 -283 348c0 171 84 358 282 358c193 0 282 -176 282 -345c0 -168 -86 -361 -281 -361zM331 60c147 0 191 168 191 286c0 61 -10 132 -41 187c-31 54 -84 92 -148 92c-153 0 -195 -165 -195 -288c0 -118 48 -277 193 -277z" />
    <glyph glyph-name="P" unicode="P" horiz-adv-x="560" 
d="M150 0h-86v686h230c59 0 118 -7 165 -46c45 -38 70 -102 70 -160c0 -53 -22 -108 -60 -145c-46 -45 -103 -56 -165 -56h-154v-279zM150 350h145c41 0 77 4 109 35c25 25 38 60 38 95c0 41 -15 82 -48 108c-29 23 -58 26 -93 26h-151v-264z" />
    <glyph glyph-name="Q" unicode="Q" horiz-adv-x="660" 
d="M137 336c0 -119 39 -275 187 -275c157 0 199 150 199 280c0 127 -45 284 -193 284c-69 0 -132 -41 -161 -111c-22 -52 -32 -121 -32 -178zM45 338c0 82 16 170 64 239c54 78 125 119 221 119c199 0 285 -179 285 -353c0 -144 -61 -303 -214 -342v-15c0 -56 39 -75 88 -75
c27 0 54 2 81 7v-68c-24 -8 -49 -13 -74 -13c-102 0 -163 50 -165 153c-198 5 -286 169 -286 348z" />
    <glyph glyph-name="R" unicode="R" horiz-adv-x="620" 
d="M574 0h-90l-127 297h-190v-297h-86v686h257c56 0 110 -7 156 -42s73 -92 73 -150c0 -81 -48 -154 -128 -176zM167 367h161c46 0 84 3 118 38c24 24 35 57 35 90c0 40 -15 73 -48 95c-30 21 -59 22 -95 22h-171v-245z" />
    <glyph glyph-name="S" unicode="S" horiz-adv-x="620" 
d="M43 185l77 17c28 -95 107 -139 203 -139c41 0 91 9 123 34c26 20 42 55 42 88c0 69 -57 97 -117 112l-114 28c-46 11 -88 22 -124 55c-36 32 -56 79 -56 127c0 132 114 189 233 189c115 0 207 -57 244 -168l-78 -21c-15 75 -95 121 -168 121c-65 0 -147 -34 -147 -109
c0 -77 60 -94 124 -109l103 -25c45 -10 90 -23 125 -53c43 -35 64 -82 64 -136c0 -62 -27 -118 -77 -156s-117 -50 -179 -50c-140 0 -232 62 -278 195z" />
    <glyph glyph-name="T" unicode="T" horiz-adv-x="500" 
d="M293 611v-611h-86v611h-195v75h476v-75h-195z" />
    <glyph glyph-name="U" unicode="U" horiz-adv-x="640" 
d="M557 686v-434c0 -68 -4 -131 -50 -186s-115 -76 -185 -76c-67 0 -138 14 -184 66c-50 56 -54 125 -54 196v434h86v-434c0 -41 1 -97 26 -133c28 -41 86 -53 133 -53c44 0 94 14 123 49c33 39 33 90 33 137v434h72z" />
    <glyph glyph-name="V" unicode="V" horiz-adv-x="560" 
d="M553 686l-232 -686h-82l-232 686h90l191 -566l190 566h75z" />
    <glyph glyph-name="W" unicode="W" horiz-adv-x="820" 
d="M811 686l-165 -686h-86l-149 532l-140 -532h-87l-174 686h88l137 -556h2l145 556h69l156 -556h2l127 556h75z" />
    <glyph glyph-name="X" unicode="X" 
d="M508 686l-192 -314l219 -372h-97l-173 292l-180 -292h-80l220 355l-196 331h96l151 -254l153 254h79z" />
    <glyph glyph-name="Y" unicode="Y" horiz-adv-x="560" 
d="M552 686l-229 -397v-289h-86v289l-229 397h100l182 -316l184 316h78z" />
    <glyph glyph-name="Z" unicode="Z" 
d="M512 74v-74h-484v74l373 541h-356v71h456v-57l-377 -555h388z" />
    <glyph glyph-name="bracketleft" unicode="[" horiz-adv-x="300" 
d="M243 -171h-178v857h178v-51h-109v-752h109v-54z" />
    <glyph glyph-name="backslash" unicode="\" horiz-adv-x="520" 
d="M126 686l413 -857h-67l-414 857h68z" />
    <glyph glyph-name="bracketright" unicode="]" horiz-adv-x="300" 
d="M235 686v-857h-178v54h109v752h-109v51h178z" />
    <glyph glyph-name="asciicircum" unicode="^" horiz-adv-x="600" 
d="M104 258l173 428h46l174 -428h-61l-136 333l-136 -333h-60z" />
    <glyph glyph-name="underscore" unicode="_" horiz-adv-x="500" 
d="M0 -75h500v-50h-500v50z" />
    <glyph glyph-name="quoteleft" unicode="&#x2018;" horiz-adv-x="300" 
d="M103 464v102l67 120h36l-50 -120h50v-102h-103z" />
    <glyph glyph-name="a" unicode="a" 
d="M393 223v33h-65c-80 0 -206 -11 -206 -116c0 -63 54 -89 110 -89c96 0 161 82 161 172zM327 315h66v22c0 89 -39 123 -129 123c-64 0 -125 -20 -139 -90l-73 12c14 106 126 139 219 139c55 0 118 -6 156 -50c42 -45 42 -109 42 -167v-197c0 -37 1 -74 11 -107h-78l-9 95
c-36 -73 -97 -105 -178 -105c-95 0 -177 53 -177 154c0 61 38 116 94 141c57 27 132 30 195 30z" />
    <glyph glyph-name="b" unicode="b" 
d="M413 248c0 85 -26 210 -134 210c-80 0 -139 -81 -139 -166v-61c0 -52 9 -90 29 -120c24 -35 67 -58 110 -58c104 0 134 111 134 195zM129 87l-29 -87h-38v686h78v-262h4c32 60 77 97 149 97c62 0 122 -33 156 -83s48 -118 48 -177c0 -129 -62 -271 -212 -271
c-67 0 -125 40 -156 97z" />
    <glyph glyph-name="c" unicode="c" horiz-adv-x="480" 
d="M374 181l72 -13c-18 -103 -87 -178 -196 -178c-151 0 -216 131 -216 264c0 132 66 267 217 267c110 0 178 -71 195 -176l-72 -13c-7 67 -48 123 -121 123c-106 0 -136 -111 -136 -196c0 -82 25 -202 131 -202c76 0 113 55 126 124z" />
    <glyph glyph-name="d" unicode="d" 
d="M395 220v81c0 35 -5 71 -26 101c-25 36 -70 57 -114 57s-82 -27 -103 -64c-23 -40 -30 -86 -30 -132c0 -83 22 -208 131 -208c45 0 86 25 112 61c24 33 30 66 30 104zM395 439v247h78v-686h-71v90h-2c-32 -64 -84 -100 -159 -100c-67 0 -118 32 -155 86
c-35 52 -48 116 -48 178c0 127 63 267 210 267c65 0 111 -31 147 -82z" />
    <glyph glyph-name="e" unicode="e" 
d="M412 154l74 -15c-30 -93 -119 -149 -216 -149c-154 0 -233 122 -233 264c0 140 83 267 235 267c158 0 226 -132 222 -273h-369c0 -40 2 -77 21 -115c24 -48 77 -77 130 -77c66 0 114 38 136 98zM129 306h279c1 84 -46 155 -136 155c-85 0 -140 -75 -143 -155z" />
    <glyph glyph-name="f" unicode="f" horiz-adv-x="300" 
d="M296 508v-62h-118v-446h-78v446h-90v62h90c-4 100 29 189 135 189c20 0 57 -2 91 -8v-63c-21 4 -42 8 -64 8c-86 0 -85 -62 -84 -126h118z" />
    <glyph glyph-name="g" unicode="g" horiz-adv-x="500" 
d="M44 348c0 110 93 173 195 173c35 0 71 -7 103 -22c13 72 48 88 117 88l20 -1l1 -63h-8c-46 0 -82 -5 -90 -58c31 -34 49 -79 49 -125c0 -50 -27 -97 -65 -127c-37 -28 -83 -39 -129 -39c-23 0 -50 8 -69 8c-24 0 -54 -21 -54 -47c0 -24 16 -38 38 -43c35 -8 84 -6 120 -8
c44 -2 109 -3 149 -18c47 -18 78 -62 78 -112c0 -129 -153 -146 -251 -146c-47 0 -105 2 -149 20c-49 20 -87 56 -87 112c0 53 29 86 77 103c-29 19 -49 42 -49 80c0 50 29 72 70 91c-43 34 -66 79 -66 134zM125 347c0 -69 45 -112 114 -112c68 0 113 45 113 113
c0 64 -51 111 -113 111c-66 0 -114 -47 -114 -112zM89 -49c0 -70 108 -82 160 -82c38 0 97 6 131 22c28 13 44 29 44 60c0 49 -55 58 -108 61c-30 2 -117 1 -172 8c-30 -14 -55 -33 -55 -69z" />
    <glyph glyph-name="h" unicode="h" 
d="M470 0h-78v296c0 31 0 71 -11 101c-14 38 -50 60 -91 60c-40 0 -78 -24 -103 -54c-35 -42 -39 -89 -39 -142v-261h-78v686h78v-272h3c32 68 79 107 158 107c54 0 105 -25 134 -71c31 -50 27 -98 27 -154v-296z" />
    <glyph glyph-name="i" unicode="i" horiz-adv-x="240" 
d="M159 508v-508h-78v508h78zM163 686v-88h-86v88h86z" />
    <glyph glyph-name="j" unicode="j" horiz-adv-x="220" 
d="M143 508v-517c0 -39 -2 -84 -26 -118c-27 -38 -74 -53 -119 -53c-25 0 -50 4 -74 10v63c19 -5 37 -8 57 -8c76 0 84 42 84 106v517h78zM148 686v-88h-86v88h86z" />
    <glyph glyph-name="k" unicode="k" horiz-adv-x="500" 
d="M492 0h-83l-148 283l-109 -126v-157h-78v686h78v-439l235 259h84l-158 -178z" />
    <glyph glyph-name="l" unicode="l" horiz-adv-x="240" 
d="M159 0h-78v686h78v-686z" />
    <glyph glyph-name="m" unicode="m" horiz-adv-x="820" 
d="M68 508h71v-98h2c26 61 81 111 152 111c74 0 127 -50 143 -121c28 70 86 121 164 121c52 0 102 -29 128 -73c25 -42 24 -98 24 -145v-303h-78v303c0 34 2 70 -14 101c-17 33 -50 53 -85 53c-39 0 -75 -24 -98 -57c-29 -41 -28 -78 -28 -126v-274h-78v322
c0 28 -2 61 -17 86c-18 30 -51 49 -85 49c-35 0 -71 -23 -92 -50c-26 -33 -31 -74 -31 -116v-291h-78v508z" />
    <glyph glyph-name="n" unicode="n" 
d="M143 508v-94h2c29 63 86 107 158 107c61 0 112 -26 144 -79c26 -43 24 -111 24 -161v-281h-78v314c0 30 1 68 -14 94c-17 29 -54 46 -87 46c-41 0 -78 -19 -105 -51c-33 -40 -40 -86 -40 -137v-266h-78v508h74z" />
    <glyph glyph-name="o" unicode="o" 
d="M42 258c0 141 80 263 233 263c149 0 223 -130 223 -264c0 -142 -82 -267 -236 -267c-152 0 -220 134 -220 268zM129 258c0 -46 7 -99 29 -139c22 -39 65 -64 111 -64c52 0 93 27 117 73c21 40 25 86 25 130c0 48 -6 98 -32 139c-24 37 -66 60 -110 60
c-49 0 -93 -28 -115 -72c-19 -37 -25 -86 -25 -127z" />
    <glyph glyph-name="p" unicode="p" 
d="M421 255c0 83 -26 197 -131 197c-69 0 -120 -61 -134 -124v-113c0 -86 58 -159 134 -159c43 0 83 26 104 62c23 39 27 92 27 137zM156 80v-246h-78v674h71v-98h2c26 67 81 111 157 111c142 0 201 -141 201 -263c0 -58 -11 -122 -41 -173c-35 -56 -91 -95 -160 -95
c-70 0 -117 32 -152 90z" />
    <glyph glyph-name="q" unicode="q" 
d="M393 240v43c0 46 -10 96 -42 132c-22 25 -58 43 -92 43c-104 0 -133 -121 -133 -203c0 -83 28 -198 132 -198c51 0 90 33 112 76c18 33 23 70 23 107zM401 426l31 82h40v-674h-78v262h-3c-26 -65 -79 -106 -152 -106c-146 0 -200 141 -200 264c0 125 62 267 207 267
c78 0 117 -33 155 -95z" />
    <glyph glyph-name="r" unicode="r" horiz-adv-x="320" 
d="M72 508h70v-119h2c24 69 67 133 149 133l29 -2v-75h-16c-60 0 -102 -29 -131 -80c-21 -37 -25 -69 -25 -109v-256h-78v508z" />
    <glyph glyph-name="s" unicode="s" horiz-adv-x="520" 
d="M43 135l76 15c11 -69 92 -95 153 -95c54 0 123 19 123 84c0 54 -55 69 -99 77l-83 15c-78 15 -149 51 -149 141c0 105 97 149 190 149c91 0 176 -34 201 -128l-72 -15c-20 56 -72 80 -130 80c-46 0 -108 -18 -108 -74c0 -55 46 -67 91 -74l74 -13c37 -7 75 -14 106 -35
c40 -27 61 -69 61 -115c0 -115 -112 -157 -211 -157s-197 41 -223 145z" />
    <glyph glyph-name="t" unicode="t" horiz-adv-x="320" 
d="M312 58v-62l-75 -6c-111 0 -144 65 -144 166v294h-90v62h90v126l78 8v-134h113v-62h-113v-307c0 -59 17 -90 81 -90z" />
    <glyph glyph-name="u" unicode="u" 
d="M468 508v-508h-71v101h-2c-25 -63 -86 -111 -156 -111c-50 0 -98 18 -130 57c-34 42 -40 100 -40 152v309h78v-309c0 -29 2 -67 17 -93c15 -28 50 -48 82 -48c42 0 78 19 105 52c31 38 39 80 39 128v270h78z" />
    <glyph glyph-name="v" unicode="v" horiz-adv-x="440" 
d="M439 508l-175 -508h-82l-181 508h87l142 -413l139 413h70z" />
    <glyph glyph-name="w" unicode="w" horiz-adv-x="660" 
d="M652 508l-146 -508h-64l-113 377l-104 -377h-65l-152 508h79l110 -379l106 379h57l114 -380l114 380h64z" />
    <glyph glyph-name="x" unicode="x" horiz-adv-x="440" 
d="M435 0h-92l-128 206l-133 -206h-77l171 263l-154 245h91l108 -174l111 174h76l-148 -228z" />
    <glyph glyph-name="y" unicode="y" horiz-adv-x="420" 
d="M425 508l-199 -556c-14 -37 -25 -65 -52 -94c-31 -33 -58 -39 -103 -39c-20 0 -39 4 -58 9v63c17 -4 35 -7 52 -7c79 0 93 65 114 125l-176 499h81l136 -382l139 382h66z" />
    <glyph glyph-name="z" unicode="z" horiz-adv-x="420" 
d="M397 508v-43l-279 -404h279v-61h-374v61l270 385h-249v62h353z" />
    <glyph glyph-name="braceleft" unicode="{" horiz-adv-x="300" 
d="M33 232v62c68 13 79 57 79 132l-1 156c0 68 55 110 82 111l73 3v-61l-44 -4c-29 -3 -36 -21 -36 -59l1 -162c1 -99 -64 -141 -73 -147c9 -7 74 -48 73 -148l-1 -163c0 -36 7 -55 36 -58l44 -6v-59l-73 3c-27 1 -82 42 -82 111l1 156c0 74 -11 120 -79 133z" />
    <glyph glyph-name="bar" unicode="|" horiz-adv-x="260" 
d="M160 750v-1000h-60v1000h60z" />
    <glyph glyph-name="braceright" unicode="}" horiz-adv-x="300" 
d="M267 294v-62c-68 -13 -79 -59 -79 -133l1 -156c0 -69 -55 -110 -82 -111l-73 -3v59l44 6c29 3 36 22 36 58l-1 163c-1 100 64 141 73 148c-9 6 -74 48 -73 147l1 162c0 38 -7 56 -36 59l-44 4v61l73 -3c27 -1 82 -43 82 -111l-1 -156c0 -75 11 -119 79 -132z" />
    <glyph glyph-name="asciitilde" unicode="~" horiz-adv-x="600" 
d="M124 211h-68c2 47 18 91 38 116c56 69 122 36 141 25l147 -79c31 -17 62 -15 76 3c12 16 16 51 16 70h68c5 -51 -17 -85 -34 -108c-38 -51 -94 -59 -172 -16l-120 67c-62 35 -92 -14 -92 -78z" />
    <glyph glyph-name="exclamdown" unicode="&#xa1;" horiz-adv-x="300" 
d="M93 508h105v-107h-105v107zM126 344h43l36 -515h-118z" />
    <glyph glyph-name="cent" unicode="&#xa2;" horiz-adv-x="600" 
d="M278 -29v143c-118 15 -177 122 -177 233c0 116 53 225 177 242v126h61v-126c82 -8 149 -75 160 -156l-68 -13c-8 44 -42 105 -92 110v-354c51 9 84 59 92 107l68 -11c-17 -85 -71 -147 -160 -158v-143h-61zM278 176v352c-80 -22 -97 -110 -97 -183c0 -68 22 -151 97 -169
z" />
    <glyph glyph-name="sterling" unicode="&#xa3;" horiz-adv-x="600" 
d="M193 324h-110v59h104l-9 93c0 54 9 101 41 145c34 47 85 75 144 75c72 0 126 -35 167 -93l-57 -43c-27 35 -56 67 -105 67c-63 0 -101 -59 -101 -117l11 -127h147v-59h-141l4 -66c0 -74 -19 -138 -80 -183h148c74 0 138 6 176 78l66 -43c-37 -77 -106 -110 -190 -110
h-405v75h23c43 1 81 2 118 28c43 31 58 70 58 122z" />
    <glyph glyph-name="fraction" unicode="&#x2044;" horiz-adv-x="160" 
d="M-91 0h-73l415 686h73z" />
    <glyph glyph-name="yen" unicode="&#xa5;" horiz-adv-x="600" 
d="M422 425h127v-59h-162l-44 -77v-3h206v-60h-206v-226h-85v226h-206v60h206v3l-45 77h-161v59h127l-151 261h101l181 -316l184 316h78z" />
    <glyph glyph-name="florin" unicode="&#x192;" horiz-adv-x="600" 
d="M509 577l-10 -59h-123l-84 -475c-7 -42 -17 -88 -42 -122c-37 -49 -92 -71 -151 -71l-42 2l11 61h27c104 0 108 77 123 159l78 446h-93l10 59h94c8 41 15 83 39 118c35 53 96 78 158 78l40 -3l-11 -61l-29 1c-90 0 -104 -59 -118 -133h123z" />
    <glyph glyph-name="section" unicode="&#xa7;" horiz-adv-x="600" 
d="M56 -40l88 13c24 -61 90 -96 153 -96c64 0 145 34 145 108c0 67 -65 87 -117 101l-79 21c-80 21 -169 52 -169 150c0 71 41 114 97 150c-53 29 -82 72 -82 134c0 107 96 155 192 155c91 0 182 -40 209 -134l-76 -8c-21 56 -73 84 -132 84c-52 0 -117 -24 -117 -86
c0 -73 77 -96 135 -112l70 -20c72 -20 136 -61 136 -145c0 -57 -39 -103 -81 -137c57 -24 97 -75 97 -139c0 -58 -25 -102 -71 -137c-47 -38 -101 -50 -161 -50c-105 0 -200 45 -237 148zM334 351l-99 31c-38 -19 -79 -52 -79 -98c0 -67 69 -88 121 -102l87 -24
c37 15 72 56 72 96c0 45 -29 74 -102 97z" />
    <glyph glyph-name="currency" unicode="&#xa4;" horiz-adv-x="600" 
d="M576 639l-28 -78c-43 43 -92 65 -147 65c-47 0 -87 -21 -118 -64c-25 -34 -43 -77 -53 -130h275l-19 -58h-263c-1 -7 -1 -16 -1 -29c0 -19 0 -30 1 -35h241l-20 -58h-217c9 -51 27 -94 54 -128c33 -42 76 -63 127 -63c30 0 57 6 81 18c19 9 41 26 66 50v-96
c-41 -27 -90 -41 -147 -41c-75 0 -137 26 -186 78c-43 47 -71 107 -84 182h-75l18 58h51c-1 5 -1 16 -1 34c0 13 0 23 1 30h-69l18 58h58c11 74 39 135 83 183c49 53 111 80 186 80c35 0 64 -4 89 -13c23 -8 49 -22 79 -43z" />
    <glyph glyph-name="quotesingle" unicode="'" horiz-adv-x="300" 
d="M103 686h94v-111l-27 -135h-40l-27 135v111z" />
    <glyph glyph-name="quotedblleft" unicode="&#x201c;" horiz-adv-x="460" 
d="M248 467v86l80 133h38l-59 -120h41v-99h-100zM97 467v86l80 133h38l-59 -120h41v-99h-100z" />
    <glyph glyph-name="guillemotleft" unicode="&#xab;" horiz-adv-x="400" 
d="M156 111l-87 146l86 142h45l-53 -142l53 -146h-44zM287 111l-87 146l86 142h45l-53 -142l53 -146h-44z" />
    <glyph glyph-name="guilsinglleft" unicode="&#x2039;" horiz-adv-x="260" 
d="M152 111l-87 146l86 142h45l-53 -142l53 -146h-44z" />
    <glyph glyph-name="guilsinglright" unicode="&#x203a;" horiz-adv-x="260" 
d="M195 257l-87 -146h-44l53 146l-53 142h45z" />
    <glyph glyph-name="fi" unicode="&#xfb01;" horiz-adv-x="500" 
d="M424 508v-508h-78v508h78zM427 686v-88h-86v88h86zM178 508h118v-62h-118v-446h-78v446h-90v62h90c1 35 -1 74 15 108c25 54 73 80 131 80c17 0 34 -3 50 -6v-62c-13 3 -26 6 -40 6c-79 0 -80 -69 -78 -126z" />
    <glyph glyph-name="fl" unicode="&#xfb02;" horiz-adv-x="500" 
d="M178 508h118v-62h-118v-446h-78v446h-90v62h90c-5 101 32 188 151 188c15 0 30 -2 45 -6v-62c-14 3 -27 5 -42 5c-77 0 -78 -70 -76 -125zM424 0h-78v686h78v-686z" />
    <glyph glyph-name="endash" unicode="&#x2013;" horiz-adv-x="500" 
d="M500 288v-62h-500v62h500z" />
    <glyph glyph-name="dagger" unicode="&#x2020;" horiz-adv-x="600" 
d="M528 418l-210 25l39 -46c-21 -77 -26 -159 -31 -239l-8 -282v-47h-33l-1 46l-20 388c-4 45 -8 91 -22 134l43 46l-212 -25l9 46l-9 44l212 -37l-43 215l59 -12l56 12l-39 -215l210 37l-9 -44z" />
    <glyph glyph-name="daggerdbl" unicode="&#x2021;" horiz-adv-x="600" 
d="M316 -171h-35l-11 219c-6 81 -10 163 -33 240l44 38l-210 -29l9 48l-9 46l210 -37l-22 64l22 52l-210 -30l9 47l-9 47l203 -37l-28 189l54 -16l54 16l-31 -189l207 37l-11 -47l11 -47l-214 30l24 -52l-24 -64l214 37l-11 -46l11 -48l-214 29c14 -15 30 -27 47 -38
c-19 -57 -23 -118 -28 -178z" />
    <glyph glyph-name="periodcentered" unicode="&#xb7;" horiz-adv-x="300" 
d="M205 345v-113h-111v113h111z" />
    <glyph glyph-name="paragraph" unicode="&#xb6;" 
d="M507 686v-65h-58v-809h-65v809h-81v-809h-65v403c-12 2 -100 -5 -162 88c-57 85 -50 172 -25 237c44 116 156 146 196 146h260z" />
    <glyph glyph-name="bullet" unicode="&#x2022;" horiz-adv-x="600" 
d="M385 343c0 -47 -37 -85 -85 -85s-85 37 -85 85c0 47 37 86 85 86s85 -39 85 -86z" />
    <glyph glyph-name="quotesinglbase" unicode="&#x201a;" horiz-adv-x="300" 
d="M209 99v-86l-80 -134h-38l59 121h-41v99h100z" />
    <glyph glyph-name="quotedblbase" unicode="&#x201e;" horiz-adv-x="460" 
d="M365 99v-86l-79 -134h-36l57 121h-41v99h99zM214 99v-86l-80 -134h-38l59 121h-41v99h100z" />
    <glyph glyph-name="quotedblright" unicode="&#x201d;" horiz-adv-x="460" 
d="M363 686v-86l-79 -133h-36l57 120h-41v99h99zM212 686v-86l-80 -133h-38l59 120h-41v99h100z" />
    <glyph glyph-name="guillemotright" unicode="&#xbb;" horiz-adv-x="400" 
d="M331 257l-87 -146h-44l53 146l-53 142h45zM200 257l-87 -146h-44l53 146l-53 142h45z" />
    <glyph glyph-name="ellipsis" unicode="&#x2026;" horiz-adv-x="1000" 
d="M222 113v-113h-111v113h111zM555 113v-113h-111v113h111zM888 113v-113h-111v113h111z" />
    <glyph glyph-name="perthousand" unicode="&#x2030;" horiz-adv-x="1040" 
d="M168 0h-73l415 686h73zM510 347c101 0 142 -90 144 -179c0 -86 -44 -178 -142 -178s-142 92 -142 178c0 89 41 179 140 179zM510 296c-66 0 -79 -70 -79 -128c0 -50 12 -127 81 -127s81 77 81 127c-2 58 -15 128 -83 128zM870 347c101 0 142 -90 144 -179
c0 -86 -44 -178 -142 -178s-142 92 -142 178c0 89 41 179 140 179zM870 296c-66 0 -79 -70 -79 -128c0 -50 12 -127 81 -127s81 77 81 127c-2 58 -15 128 -83 128zM166 696c101 0 142 -90 144 -179c0 -86 -44 -178 -142 -178s-142 92 -142 178c0 89 41 179 140 179zM166 645
c-66 0 -79 -70 -79 -128c0 -50 12 -127 81 -127s81 77 81 127c-2 58 -15 128 -83 128z" />
    <glyph glyph-name="questiondown" unicode="&#xbf;" 
d="M255 344h72v-43c0 -65 -2 -109 -65 -144l-44 -25c-48 -27 -84 -61 -84 -120c0 -81 66 -123 141 -123c91 0 141 64 154 147l75 -16c-20 -128 -104 -202 -235 -202c-117 0 -224 67 -224 193c0 87 54 142 128 180c19 10 52 27 66 42c18 20 16 42 16 67v44zM339 508v-98h-102
v98h102z" />
    <glyph glyph-name="grave" unicode="`" horiz-adv-x="380" 
d="M284 557l-215 94l34 65l201 -119z" />
    <glyph glyph-name="acute" unicode="&#xb4;" horiz-adv-x="380" 
d="M354 651l-215 -94l-20 40l201 119z" />
    <glyph glyph-name="circumflex" unicode="&#x2c6;" horiz-adv-x="480" 
d="M407 593l-69 -10l-93 62l-98 -62l-73 10l171 123z" />
    <glyph glyph-name="tilde" unicode="&#x2dc;" horiz-adv-x="500" 
d="M393 672l36 -38c-30 -30 -61 -46 -104 -46c-31 0 -43 8 -70 21c-26 13 -48 25 -78 25c-26 0 -46 -13 -63 -31l-43 31c26 35 68 57 112 57c29 0 55 -11 80 -22s48 -22 69 -22s43 14 61 25z" />
    <glyph glyph-name="macron" unicode="&#xaf;" horiz-adv-x="460" 
d="M387 691v-59h-315v59h315z" />
    <glyph glyph-name="breve" unicode="&#x2d8;" horiz-adv-x="480" 
d="M353 691h55c-18 -84 -86 -109 -163 -109c-84 0 -149 19 -173 109h61c16 -49 67 -54 111 -54c48 0 88 6 109 54z" />
    <glyph glyph-name="dotaccent" unicode="&#x2d9;" horiz-adv-x="240" 
d="M172 666c0 -30 -24 -52 -53 -52s-51 24 -51 52c0 29 24 50 52 50c27 0 52 -22 52 -50z" />
    <glyph glyph-name="dieresis" unicode="&#xa8;" horiz-adv-x="400" 
d="M329 666c0 -30 -24 -52 -53 -52s-51 24 -51 52c0 29 24 50 52 50c27 0 52 -22 52 -50zM174 666c0 -30 -24 -52 -53 -52s-51 24 -51 52c0 29 24 50 52 50c27 0 52 -22 52 -50z" />
    <glyph glyph-name="ring" unicode="&#x2da;" horiz-adv-x="320" 
d="M159 546c-48 0 -89 40 -89 89c0 50 39 91 89 91c51 0 91 -40 91 -91c0 -49 -41 -89 -91 -89zM160 590c24 0 46 21 46 45c0 25 -21 46 -46 46c-26 0 -46 -20 -46 -46s21 -45 46 -45z" />
    <glyph glyph-name="cedilla" unicode="&#xb8;" horiz-adv-x="320" 
d="M163 0l-10 -34c43 1 100 -14 100 -66c0 -53 -48 -74 -94 -74c-32 0 -64 6 -91 23l11 32c23 -11 47 -18 72 -18c20 0 51 9 51 34c0 34 -38 37 -63 37l-32 -3l22 69h34z" />
    <glyph glyph-name="hungarumlaut" unicode="&#x2dd;" horiz-adv-x="500" 
d="M276 666l-170 -161l-34 31l151 180zM427 666l-170 -161l-34 31l151 180z" />
    <glyph glyph-name="ogonek" unicode="&#x2db;" horiz-adv-x="320" 
d="M112 -11l56 11l2 -2c-21 -12 -38 -25 -38 -53c0 -25 21 -39 44 -39c20 0 39 7 57 15l14 -31c-25 -16 -56 -25 -86 -25c-39 0 -88 17 -88 64c0 26 18 46 39 60z" />
    <glyph glyph-name="caron" unicode="&#x2c7;" horiz-adv-x="480" 
d="M73 706l69 10l95 -63l96 63l74 -10l-170 -124z" />
    <glyph glyph-name="emdash" unicode="&#x2014;" horiz-adv-x="1000" 
d="M1000 288v-62h-1000v62h1000z" />
    <glyph glyph-name="AE" unicode="&#xc6;" horiz-adv-x="960" 
d="M922 74v-74h-471v212h-231l-126 -212h-83l408 686h490v-74h-372v-218h301v-69h-301v-251h385zM451 279v329l-194 -329h194z" />
    <glyph glyph-name="ordfeminine" unicode="&#xaa;" horiz-adv-x="360" 
d="M254 536h-36c-48 0 -123 -10 -123 -68c0 -24 29 -44 69 -44c50 0 90 50 90 90v22zM102 606l-57 6c9 64 82 84 142 84c36 0 77 -4 102 -30c27 -28 27 -66 27 -101v-92c0 -38 5 -72 9 -94h-63v43c-19 -28 -58 -47 -111 -47c-62 0 -115 32 -115 93c0 37 20 72 62 92
c27 13 84 22 120 22h36v22c0 26 -20 43 -71 43c-42 0 -73 -7 -81 -41z" />
    <glyph glyph-name="Lslash" unicode="&#x141;" horiz-adv-x="500" 
d="M491 75v-75h-404v281l-73 -75v72l73 77v331h86v-255l91 91v-72l-91 -93v-282h318z" />
    <glyph glyph-name="Oslash" unicode="&#xd8;" horiz-adv-x="660" 
d="M485 525l-280 -407c29 -34 70 -58 126 -58c147 0 191 168 191 286c0 58 -9 126 -37 179zM173 168l278 405c-30 32 -72 52 -118 52c-153 0 -195 -165 -195 -288c0 -54 10 -116 35 -169zM625 729l-90 -131c52 -66 77 -157 77 -247c0 -168 -86 -361 -281 -361
c-72 0 -129 23 -173 62l-62 -91h-65l90 131c-50 68 -73 156 -73 246c0 171 84 358 282 358c68 0 123 -21 166 -58l63 91h66z" />
    <glyph glyph-name="OE" unicode="&#x152;" horiz-adv-x="1000" 
d="M527 0v75c-45 -58 -107 -85 -181 -85c-199 0 -298 174 -298 352c0 179 101 354 300 354c75 0 132 -26 179 -83v73h436v-74h-350v-218h282v-69h-282v-251h350v-74h-436zM527 201v297c-18 84 -96 130 -179 130c-154 0 -208 -156 -208 -283c0 -131 52 -287 210 -287
c89 0 160 57 177 143z" />
    <glyph glyph-name="ordmasculine" unicode="&#xba;" horiz-adv-x="360" 
d="M180 696c96 0 148 -74 148 -160c0 -80 -44 -161 -148 -161s-148 81 -148 161c0 86 52 160 148 160zM180 640c-56 0 -87 -48 -87 -104c0 -52 26 -105 87 -105s87 53 87 105c0 56 -31 104 -87 104z" />
    <glyph glyph-name="ae" unicode="&#xe6;" horiz-adv-x="900" 
d="M484 306h278c-2 81 -44 154 -135 154c-87 0 -140 -74 -143 -154zM403 254h-68c-45 0 -88 0 -129 -17c-36 -17 -66 -50 -66 -91c0 -57 44 -93 99 -93c54 0 106 29 136 74c28 41 29 80 28 127zM768 152l71 -13c-28 -93 -116 -148 -212 -148s-163 46 -205 128
c-31 -83 -101 -129 -190 -129c-93 0 -177 50 -177 151c0 63 35 113 91 141c51 26 132 31 189 31h70v35c0 83 -52 114 -129 114c-58 0 -115 -27 -128 -88l-74 13c22 101 124 134 217 134c68 0 131 -15 172 -72c40 46 101 72 163 72c158 0 223 -134 222 -273h-367
c-6 -98 42 -193 152 -193c65 0 111 39 135 97z" />
    <glyph glyph-name="dotlessi" unicode="&#x131;" horiz-adv-x="240" 
d="M159 508v-508h-78v508h78z" />
    <glyph glyph-name="lslash" unicode="&#x142;" horiz-adv-x="200" 
d="M140 686v-223l52 51v-80l-52 -47v-387h-78v310l-53 -52v75l53 53v300h78z" />
    <glyph glyph-name="oslash" unicode="&#xf8;" 
d="M146 145l211 277c-21 22 -55 35 -88 35c-49 0 -93 -28 -115 -72c-19 -37 -25 -86 -25 -127c0 -37 4 -78 17 -113zM390 376l-214 -281c24 -25 58 -40 93 -40c52 0 93 27 117 73c21 40 25 86 25 130c0 40 -4 81 -21 118zM540 575l-100 -132c38 -49 58 -117 58 -186
c0 -142 -82 -267 -236 -267c-55 0 -98 17 -131 45l-70 -91h-66l98 133c-34 49 -51 115 -51 181c0 141 80 263 233 263c50 0 92 -15 126 -40l72 94h67z" />
    <glyph glyph-name="oe" unicode="&#x153;" horiz-adv-x="880" 
d="M758 156l71 -14c-27 -91 -110 -152 -205 -152c-73 0 -133 31 -177 87c-48 -56 -104 -87 -180 -87c-154 0 -230 128 -230 268c0 64 18 131 60 182c43 51 106 81 174 81c71 0 131 -32 176 -86c44 54 102 86 174 86c155 0 217 -136 216 -273h-356c-1 -38 1 -75 19 -111
c23 -50 75 -80 130 -80c64 0 106 42 128 99zM483 306h270c-1 80 -46 153 -132 153c-85 0 -135 -73 -138 -153zM266 53c119 0 146 110 146 206c0 42 -6 95 -28 131c-24 41 -63 64 -111 64c-123 0 -147 -110 -147 -208c0 -41 7 -98 30 -133c24 -37 66 -60 110 -60z" />
    <glyph glyph-name="germandbls" unicode="&#xdf;" horiz-adv-x="580" 
d="M144 463v-495h-81v420h-53v61h53c4 132 71 247 225 247c85 0 188 -50 188 -142c0 -97 -107 -137 -193 -137c-8 0 -29 3 -29 -8c0 -17 61 -35 72 -39c46 -15 100 -37 141 -63c51 -33 75 -76 75 -135c0 -52 -26 -101 -66 -134c-40 -34 -96 -48 -149 -48
c-38 0 -76 7 -113 15l22 55c26 -4 52 -10 79 -10c31 0 64 7 89 24c28 20 52 54 52 88c0 54 -38 81 -85 101l-102 43c-37 15 -91 40 -91 85c0 15 8 37 16 50c9 16 19 16 39 17c58 5 157 29 157 99c0 53 -54 78 -102 78c-109 0 -144 -80 -144 -172z" />
    <glyph glyph-name="oldcurrency" horiz-adv-x="600" 
d="M89 497l54 57l58 -59c81 39 123 35 195 0l56 54l59 -61l-58 -55c11 -17 23 -39 29 -85c2 -50 -20 -84 -33 -106l57 -57l-58 -55l-53 55c-67 -43 -117 -43 -193 -8l-54 -51l-55 59l49 51c-44 56 -44 160 5 201zM396 340c0 69 -61 103 -104 99c-43 4 -104 -30 -101 -102
c-3 -72 58 -106 101 -102c43 -4 104 30 104 105z" />
    <glyph glyph-name="onesuperior" unicode="&#xb9;" horiz-adv-x="360" 
d="M336 330v-46h-312v46h129v303c-31 -34 -72 -65 -119 -87v51c48 24 97 60 131 99h50v-366h121z" />
    <glyph glyph-name="minus" unicode="&#x2212;" horiz-adv-x="600" 
d="M41 256v65h517v-65h-517z" />
    <glyph glyph-name="degree" unicode="&#xb0;" horiz-adv-x="400" 
d="M350 546c0 -83 -68 -150 -150 -150c-83 0 -150 67 -150 150c-1 82 67 150 150 150c82 0 150 -68 150 -150zM289 545c0 49 -41 90 -90 90s-90 -41 -89 -90c0 -49 40 -89 89 -89s90 40 90 89z" />
    <glyph glyph-name="oacute" unicode="&#xf3;" 
d="M42 258c0 141 80 263 233 263c149 0 223 -130 223 -264c0 -142 -82 -267 -236 -267c-152 0 -220 134 -220 268zM129 258c0 -46 7 -99 29 -139c22 -39 65 -64 111 -64c52 0 93 27 117 73c21 40 25 86 25 130c0 48 -6 98 -32 139c-24 37 -66 60 -110 60
c-49 0 -93 -28 -115 -72c-19 -37 -25 -86 -25 -127zM434 651l-215 -94l-20 40l201 119z" />
    <glyph glyph-name="Odieresis" unicode="&#xd6;" horiz-adv-x="660" 
d="M331 -10c-197 0 -283 176 -283 348c0 171 84 358 282 358c193 0 282 -176 282 -345c0 -168 -86 -361 -281 -361zM331 60c147 0 191 168 191 286c0 61 -10 132 -41 187c-31 54 -84 92 -148 92c-153 0 -195 -165 -195 -288c0 -118 48 -277 193 -277zM459 824
c0 -30 -24 -52 -53 -52s-51 24 -51 52c0 29 24 50 52 50c27 0 52 -22 52 -50zM304 824c0 -30 -24 -52 -53 -52s-51 24 -51 52c0 29 24 50 52 50c27 0 52 -22 52 -50z" />
    <glyph glyph-name="odieresis" unicode="&#xf6;" 
d="M42 258c0 141 80 263 233 263c149 0 223 -130 223 -264c0 -142 -82 -267 -236 -267c-152 0 -220 134 -220 268zM129 258c0 -46 7 -99 29 -139c22 -39 65 -64 111 -64c52 0 93 27 117 73c21 40 25 86 25 130c0 48 -6 98 -32 139c-24 37 -66 60 -110 60
c-49 0 -93 -28 -115 -72c-19 -37 -25 -86 -25 -127zM399 666c0 -30 -24 -52 -53 -52s-51 24 -51 52c0 29 24 50 52 50c27 0 52 -22 52 -50zM244 666c0 -30 -24 -52 -53 -52s-51 24 -51 52c0 29 24 50 52 50c27 0 52 -22 52 -50z" />
    <glyph glyph-name="Eacute" unicode="&#xc9;" horiz-adv-x="560" 
d="M529 74v-74h-444v686h434v-74h-348v-218h276v-69h-276v-251h358zM484 829l-215 -94l-20 40l201 119z" />
    <glyph glyph-name="ucircumflex" unicode="&#xfb;" 
d="M468 508v-508h-71v101h-2c-25 -63 -86 -111 -156 -111c-50 0 -98 18 -130 57c-34 42 -40 100 -40 152v309h78v-309c0 -29 2 -67 17 -93c15 -28 50 -48 82 -48c42 0 78 19 105 52c31 38 39 80 39 128v270h78zM437 593l-69 -10l-93 62l-98 -62l-73 10l171 123z" />
    <glyph glyph-name="onequarter" unicode="&#xbc;" horiz-adv-x="900" 
d="M342 320v-46h-312v46h129v303c-31 -34 -72 -65 -119 -87v51c48 24 97 60 131 99h50v-366h121zM340 0h-73l415 686h73zM805 0h-62v96h-226v34l204 282h84v-270h65v-46h-65v-96zM743 142v216l-156 -216h156z" />
    <glyph glyph-name="logicalnot" unicode="&#xac;" horiz-adv-x="600" 
d="M494 116v205h-453v65h518v-270h-65z" />
    <glyph glyph-name="Ecircumflex" unicode="&#xca;" horiz-adv-x="560" 
d="M529 74v-74h-444v686h434v-74h-348v-218h276v-69h-276v-251h358zM467 771l-69 -10l-93 62l-98 -62l-73 10l171 123z" />
    <glyph glyph-name="onehalf" unicode="&#xbd;" horiz-adv-x="900" 
d="M307 0h-73l415 686h73zM870 47v-47h-317v47l175 127c44 32 81 68 81 121c0 51 -46 78 -97 78c-57 0 -103 -46 -103 -90l-56 14c17 75 77 121 161 121c77 0 155 -45 155 -123c0 -64 -41 -113 -93 -148l-148 -100h242zM342 320v-46h-312v46h129v303
c-31 -34 -72 -65 -119 -87v51c48 24 97 60 131 99h50v-366h121z" />
    <glyph glyph-name="Otilde" unicode="&#xd5;" horiz-adv-x="660" 
d="M331 -10c-197 0 -283 176 -283 348c0 171 84 358 282 358c193 0 282 -176 282 -345c0 -168 -86 -361 -281 -361zM331 60c147 0 191 168 191 286c0 61 -10 132 -41 187c-31 54 -84 92 -148 92c-153 0 -195 -165 -195 -288c0 -118 48 -277 193 -277zM473 850l36 -38
c-30 -30 -61 -46 -104 -46c-31 0 -43 8 -70 21c-26 13 -48 25 -78 25c-26 0 -46 -13 -63 -31l-43 31c26 35 68 57 112 57c29 0 55 -11 80 -22s48 -22 69 -22s43 14 61 25z" />
    <glyph glyph-name="uacute" unicode="&#xfa;" 
d="M468 508v-508h-71v101h-2c-25 -63 -86 -111 -156 -111c-50 0 -98 18 -130 57c-34 42 -40 100 -40 152v309h78v-309c0 -29 2 -67 17 -93c15 -28 50 -48 82 -48c42 0 78 19 105 52c31 38 39 80 39 128v270h78zM474 651l-215 -94l-20 40l201 119z" />
    <glyph glyph-name="eacute" unicode="&#xe9;" 
d="M412 154l74 -15c-30 -93 -119 -149 -216 -149c-154 0 -233 122 -233 264c0 140 83 267 235 267c158 0 226 -132 222 -273h-369c0 -40 2 -77 21 -115c24 -48 77 -77 130 -77c66 0 114 38 136 98zM129 306h279c1 84 -46 155 -136 155c-85 0 -140 -75 -143 -155zM434 651
l-215 -94l-20 40l201 119z" />
    <glyph glyph-name="iacute" unicode="&#xed;" horiz-adv-x="240" 
d="M159 508v-508h-78v508h78zM304 651l-215 -94l-20 40l201 119z" />
    <glyph glyph-name="Egrave" unicode="&#xc8;" horiz-adv-x="560" 
d="M529 74v-74h-444v686h434v-74h-348v-218h276v-69h-276v-251h358zM354 735l-215 94l34 65l201 -119z" />
    <glyph glyph-name="icircumflex" unicode="&#xee;" horiz-adv-x="240" 
d="M159 508v-508h-78v508h78zM277 593l-69 -10l-93 62l-98 -62l-73 10l171 123z" />
    <glyph glyph-name="mu" unicode="&#xb5;" 
d="M468 508v-508h-71v101h-2c-25 -63 -86 -111 -156 -111c-35 0 -67 10 -92 31v-187h-78v674h78v-309c0 -29 2 -67 17 -93c15 -28 50 -48 82 -48c42 0 78 19 105 52c31 38 39 80 39 128v270h78z" />
    <glyph glyph-name="brokenbar" unicode="&#xa6;" horiz-adv-x="260" 
d="M100 675h60v-350h-60v350zM100 175h60v-350h-60v350z" />
    <glyph glyph-name="thorn" unicode="&#xfe;" 
d="M156 328v-129c0 -70 62 -143 134 -143c43 0 83 26 104 62c23 39 27 92 27 137c0 83 -26 197 -131 197c-69 0 -120 -61 -134 -124zM78 686h78v-276h2c19 67 74 111 150 111c142 0 201 -141 201 -263c0 -58 -11 -122 -41 -173c-35 -56 -91 -95 -160 -95
c-70 0 -117 32 -152 90v-246h-78v852z" />
    <glyph glyph-name="Aring" unicode="&#xc5;" horiz-adv-x="560" 
d="M329 686l223 -686h-88l-69 200h-254l-61 -200h-72l222 686h99zM376 265l-105 329l-106 -329h211zM279 734c-48 0 -89 40 -89 89c0 50 39 91 89 91c51 0 91 -40 91 -91c0 -49 -41 -89 -91 -89zM280 778c24 0 46 21 46 45c0 25 -21 46 -46 46c-26 0 -46 -20 -46 -46
s21 -45 46 -45z" />
    <glyph glyph-name="yacute" unicode="&#xfd;" horiz-adv-x="420" 
d="M425 508l-199 -556c-14 -37 -25 -65 -52 -94c-31 -33 -58 -39 -103 -39c-20 0 -39 4 -58 9v63c17 -4 35 -7 52 -7c79 0 93 65 114 125l-176 499h81l136 -382l139 382h66zM394 651l-215 -94l-20 40l201 119z" />
    <glyph glyph-name="Ydieresis" unicode="&#x178;" horiz-adv-x="560" 
d="M552 686l-229 -397v-289h-86v289l-229 397h100l182 -316l184 316h78zM409 824c0 -30 -24 -52 -53 -52s-51 24 -51 52c0 29 24 50 52 50c27 0 52 -22 52 -50zM254 824c0 -30 -24 -52 -53 -52s-51 24 -51 52c0 29 24 50 52 50c27 0 52 -22 52 -50z" />
    <glyph glyph-name="trademark" unicode="&#x2122;" horiz-adv-x="840" 
d="M209 275h-62v361h-112v50h286v-50h-112v-361zM478 686l119 -329l116 329h92v-411h-62v359h-2l-126 -359h-45l-130 359h-2v-359h-50v411h90z" />
    <glyph glyph-name="registered" unicode="&#xae;" horiz-adv-x="760" 
d="M216 467v-88h-47v221h103c13 0 84 0 84 -66c0 -42 -30 -54 -41 -59l41 -96h-50l-36 88h-54zM216 564v-60h49c16 0 42 4 42 31c0 13 -9 29 -38 29h-53zM50 489c0 116 93 207 206 207c112 0 206 -91 206 -207c0 -113 -92 -206 -206 -206s-206 93 -206 206zM87 489
c0 -93 76 -169 169 -169s169 76 169 169c0 95 -76 170 -169 170c-92 0 -169 -75 -169 -170z" />
    <glyph glyph-name="ocircumflex" unicode="&#xf4;" 
d="M42 258c0 141 80 263 233 263c149 0 223 -130 223 -264c0 -142 -82 -267 -236 -267c-152 0 -220 134 -220 268zM129 258c0 -46 7 -99 29 -139c22 -39 65 -64 111 -64c52 0 93 27 117 73c21 40 25 86 25 130c0 48 -6 98 -32 139c-24 37 -66 60 -110 60
c-49 0 -93 -28 -115 -72c-19 -37 -25 -86 -25 -127zM447 593l-69 -10l-93 62l-98 -62l-73 10l171 123z" />
    <glyph glyph-name="Agrave" unicode="&#xc0;" horiz-adv-x="560" 
d="M329 686l223 -686h-88l-69 200h-254l-61 -200h-72l222 686h99zM376 265l-105 329l-106 -329h211zM314 735l-215 94l34 65l201 -119z" />
    <glyph glyph-name="Scaron" unicode="&#x160;" horiz-adv-x="620" 
d="M43 185l77 17c28 -95 107 -139 203 -139c41 0 91 9 123 34c26 20 42 55 42 88c0 69 -57 97 -117 112l-114 28c-46 11 -88 22 -124 55c-36 32 -56 79 -56 127c0 132 114 189 233 189c115 0 207 -57 244 -168l-78 -21c-15 75 -95 121 -168 121c-65 0 -147 -34 -147 -109
c0 -77 60 -94 124 -109l103 -25c45 -10 90 -23 125 -53c43 -35 64 -82 64 -136c0 -62 -27 -118 -77 -156s-117 -50 -179 -50c-140 0 -232 62 -278 195zM143 884l69 10l95 -63l96 63l74 -10l-170 -124z" />
    <glyph glyph-name="Ugrave" unicode="&#xd9;" horiz-adv-x="640" 
d="M557 686v-434c0 -68 -4 -131 -50 -186s-115 -76 -185 -76c-67 0 -138 14 -184 66c-50 56 -54 125 -54 196v434h86v-434c0 -41 1 -97 26 -133c28 -41 86 -53 133 -53c44 0 94 14 123 49c33 39 33 90 33 137v434h72zM394 735l-215 94l34 65l201 -119z" />
    <glyph glyph-name="Edieresis" unicode="&#xcb;" horiz-adv-x="560" 
d="M529 74v-74h-444v686h434v-74h-348v-218h276v-69h-276v-251h358zM429 824c0 -30 -24 -52 -53 -52s-51 24 -51 52c0 29 24 50 52 50c27 0 52 -22 52 -50zM274 824c0 -30 -24 -52 -53 -52s-51 24 -51 52c0 29 24 50 52 50c27 0 52 -22 52 -50z" />
    <glyph glyph-name="Uacute" unicode="&#xda;" horiz-adv-x="640" 
d="M557 686v-434c0 -68 -4 -131 -50 -186s-115 -76 -185 -76c-67 0 -138 14 -184 66c-50 56 -54 125 -54 196v434h86v-434c0 -41 1 -97 26 -133c28 -41 86 -53 133 -53c44 0 94 14 123 49c33 39 33 90 33 137v434h72zM524 829l-215 -94l-20 40l201 119z" />
    <glyph glyph-name="otilde" unicode="&#xf5;" 
d="M42 258c0 141 80 263 233 263c149 0 223 -130 223 -264c0 -142 -82 -267 -236 -267c-152 0 -220 134 -220 268zM129 258c0 -46 7 -99 29 -139c22 -39 65 -64 111 -64c52 0 93 27 117 73c21 40 25 86 25 130c0 48 -6 98 -32 139c-24 37 -66 60 -110 60
c-49 0 -93 -28 -115 -72c-19 -37 -25 -86 -25 -127zM413 672l36 -38c-30 -30 -61 -46 -104 -46c-31 0 -43 8 -70 21c-26 13 -48 25 -78 25c-26 0 -46 -13 -63 -31l-43 31c26 35 68 57 112 57c29 0 55 -11 80 -22s48 -22 69 -22s43 14 61 25z" />
    <glyph glyph-name="ntilde" unicode="&#xf1;" 
d="M143 508v-94h2c29 63 86 107 158 107c61 0 112 -26 144 -79c26 -43 24 -111 24 -161v-281h-78v314c0 30 1 68 -14 94c-17 29 -54 46 -87 46c-41 0 -78 -19 -105 -51c-33 -40 -40 -86 -40 -137v-266h-78v508h74zM413 672l36 -38c-30 -30 -61 -46 -104 -46
c-31 0 -43 8 -70 21c-26 13 -48 25 -78 25c-26 0 -46 -13 -63 -31l-43 31c26 35 68 57 112 57c29 0 55 -11 80 -22s48 -22 69 -22s43 14 61 25z" />
    <glyph glyph-name="ydieresis" unicode="&#xff;" horiz-adv-x="420" 
d="M425 508l-199 -556c-14 -37 -25 -65 -52 -94c-31 -33 -58 -39 -103 -39c-20 0 -39 4 -58 9v63c17 -4 35 -7 52 -7c79 0 93 65 114 125l-176 499h81l136 -382l139 382h66zM339 666c0 -30 -24 -52 -53 -52s-51 24 -51 52c0 29 24 50 52 50c27 0 52 -22 52 -50zM184 666
c0 -30 -24 -52 -53 -52s-51 24 -51 52c0 29 24 50 52 50c27 0 52 -22 52 -50z" />
    <glyph glyph-name="Aacute" unicode="&#xc1;" horiz-adv-x="560" 
d="M329 686l223 -686h-88l-69 200h-254l-61 -200h-72l222 686h99zM376 265l-105 329l-106 -329h211zM459 829l-215 -94l-20 40l201 119z" />
    <glyph glyph-name="eth" unicode="&#xf0;" 
d="M125 252c0 -40 7 -93 29 -133c22 -39 65 -64 111 -64c52 0 93 27 117 73c21 40 25 86 25 124c0 42 -6 92 -32 133c-24 37 -66 60 -110 60c-49 0 -93 -28 -115 -72c-19 -37 -25 -86 -25 -121zM499 660l-113 -47c69 -101 108 -222 108 -324c0 -174 -82 -299 -236 -299
c-152 0 -220 134 -220 264c0 119 73 255 232 255c18 0 58 -3 96 -31c-18 42 -38 76 -56 103l-126 -53l-28 60l114 48c-12 14 -24 28 -35 41l71 30c14 -13 27 -26 38 -40l127 53z" />
    <glyph glyph-name="acircumflex" unicode="&#xe2;" 
d="M393 223v33h-65c-80 0 -206 -11 -206 -116c0 -63 54 -89 110 -89c96 0 161 82 161 172zM327 315h66v22c0 89 -39 123 -129 123c-64 0 -125 -20 -139 -90l-73 12c14 106 126 139 219 139c55 0 118 -6 156 -50c42 -45 42 -109 42 -167v-197c0 -37 1 -74 11 -107h-78l-9 95
c-36 -73 -97 -105 -178 -105c-95 0 -177 53 -177 154c0 61 38 116 94 141c57 27 132 30 195 30zM427 593l-69 -10l-93 62l-98 -62l-73 10l171 123z" />
    <glyph glyph-name="aring" unicode="&#xe5;" 
d="M393 223v33h-65c-80 0 -206 -11 -206 -116c0 -63 54 -89 110 -89c96 0 161 82 161 172zM327 315h66v22c0 89 -39 123 -129 123c-64 0 -125 -20 -139 -90l-73 12c14 106 126 139 219 139c55 0 118 -6 156 -50c42 -45 42 -109 42 -167v-197c0 -37 1 -74 11 -107h-78l-9 95
c-36 -73 -97 -105 -178 -105c-95 0 -177 53 -177 154c0 61 38 116 94 141c57 27 132 30 195 30zM289 566c-48 0 -89 40 -89 89c0 50 39 91 89 91c51 0 91 -40 91 -91c0 -49 -41 -89 -91 -89zM290 610c24 0 46 21 46 45c0 25 -21 46 -46 46c-26 0 -46 -20 -46 -46
s21 -45 46 -45z" />
    <glyph glyph-name="Ograve" unicode="&#xd2;" horiz-adv-x="660" 
d="M331 -10c-197 0 -283 176 -283 348c0 171 84 358 282 358c193 0 282 -176 282 -345c0 -168 -86 -361 -281 -361zM331 60c147 0 191 168 191 286c0 61 -10 132 -41 187c-31 54 -84 92 -148 92c-153 0 -195 -165 -195 -288c0 -118 48 -277 193 -277zM354 735l-215 94l34 65
l201 -119z" />
    <glyph glyph-name="ccedilla" unicode="&#xe7;" horiz-adv-x="480" 
d="M374 181l72 -13c-17 -100 -83 -173 -186 -177l-7 -25c43 1 100 -14 100 -66c0 -53 -48 -74 -94 -74c-32 0 -64 6 -91 23l11 32c23 -11 47 -18 72 -18c20 0 51 9 51 34c0 34 -38 37 -63 37l-32 -3l19 60c-134 13 -192 137 -192 263c0 132 66 267 217 267
c110 0 178 -71 195 -176l-72 -13c-7 67 -48 123 -121 123c-106 0 -136 -111 -136 -196c0 -82 25 -202 131 -202c76 0 113 55 126 124z" />
    <glyph glyph-name="multiply" unicode="&#xd7;" horiz-adv-x="600" 
d="M42 501l46 46l212 -213l212 213l46 -46l-212 -213l212 -213l-46 -46l-212 213l-212 -213l-46 46l212 213z" />
    <glyph glyph-name="divide" unicode="&#xf7;" horiz-adv-x="600" 
d="M41 256v65h517v-65h-517zM348 143v-97h-97v97h97zM348 531v-97h-97v97h97z" />
    <glyph glyph-name="twosuperior" unicode="&#xb2;" horiz-adv-x="360" 
d="M338 325v-47h-317v47l175 127c44 32 81 68 81 121c0 51 -46 78 -97 78c-57 0 -103 -46 -103 -90l-56 14c17 75 77 121 161 121c77 0 155 -45 155 -123c0 -64 -41 -113 -93 -148l-148 -100h242z" />
    <glyph glyph-name="Ntilde" unicode="&#xd1;" horiz-adv-x="660" 
d="M583 686v-686h-84l-349 598v-598h-72v686h108l325 -559v559h72zM473 840l36 -38c-30 -30 -61 -46 -104 -46c-31 0 -43 8 -70 21c-26 13 -48 25 -78 25c-26 0 -46 -13 -63 -31l-43 31c26 35 68 57 112 57c29 0 55 -11 80 -22s48 -22 69 -22s43 14 61 25z" />
    <glyph glyph-name="ugrave" unicode="&#xf9;" 
d="M468 508v-508h-71v101h-2c-25 -63 -86 -111 -156 -111c-50 0 -98 18 -130 57c-34 42 -40 100 -40 152v309h78v-309c0 -29 2 -67 17 -93c15 -28 50 -48 82 -48c42 0 78 19 105 52c31 38 39 80 39 128v270h78zM294 557l-215 94l34 65l201 -119z" />
    <glyph glyph-name="Ucircumflex" unicode="&#xdb;" horiz-adv-x="640" 
d="M557 686v-434c0 -68 -4 -131 -50 -186s-115 -76 -185 -76c-67 0 -138 14 -184 66c-50 56 -54 125 -54 196v434h86v-434c0 -41 1 -97 26 -133c28 -41 86 -53 133 -53c44 0 94 14 123 49c33 39 33 90 33 137v434h72zM487 771l-69 -10l-93 62l-98 -62l-73 10l171 123z" />
    <glyph glyph-name="Atilde" unicode="&#xc3;" horiz-adv-x="560" 
d="M329 686l223 -686h-88l-69 200h-254l-61 -200h-72l222 686h99zM376 265l-105 329l-106 -329h211zM423 840l36 -38c-30 -30 -61 -46 -104 -46c-31 0 -43 8 -70 21c-26 13 -48 25 -78 25c-26 0 -46 -13 -63 -31l-43 31c26 35 68 57 112 57c29 0 55 -11 80 -22
s48 -22 69 -22s43 14 61 25z" />
    <glyph glyph-name="zcaron" unicode="&#x17e;" horiz-adv-x="420" 
d="M397 508v-43l-279 -404h279v-61h-374v61l270 385h-249v62h353zM53 696l69 10l95 -63l96 63l74 -10l-170 -124z" />
    <glyph glyph-name="idieresis" unicode="&#xef;" horiz-adv-x="240" 
d="M159 508v-508h-78v508h78zM249 666c0 -30 -24 -52 -53 -52s-51 24 -51 52c0 29 24 50 52 50c27 0 52 -22 52 -50zM94 666c0 -30 -24 -52 -53 -52s-51 24 -51 52c0 29 24 50 52 50c27 0 52 -22 52 -50z" />
    <glyph glyph-name="Acircumflex" unicode="&#xc2;" horiz-adv-x="560" 
d="M329 686l223 -686h-88l-69 200h-254l-61 -200h-72l222 686h99zM376 265l-105 329l-106 -329h211zM447 771l-69 -10l-93 62l-98 -62l-73 10l171 123z" />
    <glyph glyph-name="Icircumflex" unicode="&#xce;" horiz-adv-x="260" 
d="M173 0h-86v686h86v-686zM277 771l-69 -10l-93 62l-98 -62l-73 10l171 123z" />
    <glyph glyph-name="Yacute" unicode="&#xdd;" horiz-adv-x="560" 
d="M552 686l-229 -397v-289h-86v289l-229 397h100l182 -316l184 316h78zM484 829l-215 -94l-20 40l201 119z" />
    <glyph glyph-name="Oacute" unicode="&#xd3;" horiz-adv-x="660" 
d="M331 -10c-197 0 -283 176 -283 348c0 171 84 358 282 358c193 0 282 -176 282 -345c0 -168 -86 -361 -281 -361zM331 60c147 0 191 168 191 286c0 61 -10 132 -41 187c-31 54 -84 92 -148 92c-153 0 -195 -165 -195 -288c0 -118 48 -277 193 -277zM504 829l-215 -94
l-20 40l201 119z" />
    <glyph glyph-name="Adieresis" unicode="&#xc4;" horiz-adv-x="560" 
d="M329 686l223 -686h-88l-69 200h-254l-61 -200h-72l222 686h99zM376 265l-105 329l-106 -329h211zM409 824c0 -30 -24 -52 -53 -52s-51 24 -51 52c0 29 24 50 52 50c27 0 52 -22 52 -50zM254 824c0 -30 -24 -52 -53 -52s-51 24 -51 52c0 29 24 50 52 50
c27 0 52 -22 52 -50z" />
    <glyph glyph-name="Zcaron" unicode="&#x17d;" 
d="M512 74v-74h-484v74l373 541h-356v71h456v-57l-377 -555h388zM103 874l69 10l95 -63l96 63l74 -10l-170 -124z" />
    <glyph glyph-name="agrave" unicode="&#xe0;" 
d="M393 223v33h-65c-80 0 -206 -11 -206 -116c0 -63 54 -89 110 -89c96 0 161 82 161 172zM327 315h66v22c0 89 -39 123 -129 123c-64 0 -125 -20 -139 -90l-73 12c14 106 126 139 219 139c55 0 118 -6 156 -50c42 -45 42 -109 42 -167v-197c0 -37 1 -74 11 -107h-78l-9 95
c-36 -73 -97 -105 -178 -105c-95 0 -177 53 -177 154c0 61 38 116 94 141c57 27 132 30 195 30zM364 557l-215 94l34 65l201 -119z" />
    <glyph glyph-name="threesuperior" unicode="&#xb3;" horiz-adv-x="360" 
d="M248 495v-2c56 -7 101 -43 101 -100c0 -36 -20 -69 -51 -90c-34 -22 -76 -31 -118 -31c-75 0 -144 32 -170 100l52 20c17 -53 58 -74 117 -74c20 0 52 0 68 11c24 17 40 37 40 64c0 26 -12 46 -39 58c-26 11 -55 17 -85 17h-43v46h43c23 0 49 2 68 14c22 14 40 30 40 54
c0 50 -41 70 -90 70c-48 0 -89 -25 -104 -67l-50 17c25 63 87 94 158 94c74 0 146 -36 146 -111c0 -45 -38 -82 -83 -90z" />
    <glyph glyph-name="ograve" unicode="&#xf2;" 
d="M42 258c0 141 80 263 233 263c149 0 223 -130 223 -264c0 -142 -82 -267 -236 -267c-152 0 -220 134 -220 268zM129 258c0 -46 7 -99 29 -139c22 -39 65 -64 111 -64c52 0 93 27 117 73c21 40 25 86 25 130c0 48 -6 98 -32 139c-24 37 -66 60 -110 60
c-49 0 -93 -28 -115 -72c-19 -37 -25 -86 -25 -127zM344 557l-215 94l34 65l201 -119z" />
    <glyph glyph-name="threequarters" unicode="&#xbe;" horiz-adv-x="900" 
d="M805 0h-62v96h-226v34l204 282h84v-270h65v-46h-65v-96zM743 142v216l-156 -216h156zM268 485v-2c56 -7 101 -43 101 -100c0 -36 -20 -69 -51 -90c-34 -22 -76 -31 -118 -31c-75 0 -144 32 -170 100l52 20c17 -53 58 -74 117 -74c20 0 52 0 68 11c24 17 40 37 40 64
c0 26 -12 46 -39 58c-26 11 -55 17 -85 17h-43v46h43c23 0 49 2 68 14c22 14 40 30 40 54c0 50 -41 70 -90 70c-48 0 -89 -25 -104 -67l-50 17c25 63 87 94 158 94c74 0 146 -36 146 -111c0 -45 -38 -82 -83 -90zM330 0h-73l415 686h73z" />
    <glyph glyph-name="Eth" unicode="&#xd0;" horiz-adv-x="660" 
d="M85 0v325h-67v69h67v292h217c98 0 171 -20 236 -97c59 -69 83 -155 83 -244c0 -84 -22 -167 -71 -236c-55 -77 -126 -109 -220 -109h-245zM171 325v-252h126c79 0 142 18 187 87c34 52 50 123 50 185c0 70 -18 143 -63 199c-47 59 -102 70 -174 70h-126v-220h163v-69
h-163z" />
    <glyph glyph-name="plusminus" unicode="&#xb1;" horiz-adv-x="600" 
d="M267 632h65v-226h226v-65h-226v-226h-65v226h-226v65h226v226zM41 0v65h517v-65h-517z" />
    <glyph glyph-name="udieresis" unicode="&#xfc;" 
d="M468 508v-508h-71v101h-2c-25 -63 -86 -111 -156 -111c-50 0 -98 18 -130 57c-34 42 -40 100 -40 152v309h78v-309c0 -29 2 -67 17 -93c15 -28 50 -48 82 -48c42 0 78 19 105 52c31 38 39 80 39 128v270h78zM399 666c0 -30 -24 -52 -53 -52s-51 24 -51 52
c0 29 24 50 52 50c27 0 52 -22 52 -50zM244 666c0 -30 -24 -52 -53 -52s-51 24 -51 52c0 29 24 50 52 50c27 0 52 -22 52 -50z" />
    <glyph glyph-name="edieresis" unicode="&#xeb;" 
d="M412 154l74 -15c-30 -93 -119 -149 -216 -149c-154 0 -233 122 -233 264c0 140 83 267 235 267c158 0 226 -132 222 -273h-369c0 -40 2 -77 21 -115c24 -48 77 -77 130 -77c66 0 114 38 136 98zM129 306h279c1 84 -46 155 -136 155c-85 0 -140 -75 -143 -155zM399 666
c0 -30 -24 -52 -53 -52s-51 24 -51 52c0 29 24 50 52 50c27 0 52 -22 52 -50zM244 666c0 -30 -24 -52 -53 -52s-51 24 -51 52c0 29 24 50 52 50c27 0 52 -22 52 -50z" />
    <glyph glyph-name="aacute" unicode="&#xe1;" 
d="M393 223v33h-65c-80 0 -206 -11 -206 -116c0 -63 54 -89 110 -89c96 0 161 82 161 172zM327 315h66v22c0 89 -39 123 -129 123c-64 0 -125 -20 -139 -90l-73 12c14 106 126 139 219 139c55 0 118 -6 156 -50c42 -45 42 -109 42 -167v-197c0 -37 1 -74 11 -107h-78l-9 95
c-36 -73 -97 -105 -178 -105c-95 0 -177 53 -177 154c0 61 38 116 94 141c57 27 132 30 195 30zM449 651l-215 -94l-20 40l201 119z" />
    <glyph glyph-name="igrave" unicode="&#xec;" horiz-adv-x="240" 
d="M159 508v-508h-78v508h78zM154 557l-215 94l34 65l201 -119z" />
    <glyph glyph-name="Idieresis" unicode="&#xcf;" horiz-adv-x="260" 
d="M173 0h-86v686h86v-686zM249 824c0 -30 -24 -52 -53 -52s-51 24 -51 52c0 29 24 50 52 50c27 0 52 -22 52 -50zM94 824c0 -30 -24 -52 -53 -52s-51 24 -51 52c0 29 24 50 52 50c27 0 52 -22 52 -50z" />
    <glyph glyph-name="adieresis" unicode="&#xe4;" 
d="M393 223v33h-65c-80 0 -206 -11 -206 -116c0 -63 54 -89 110 -89c96 0 161 82 161 172zM327 315h66v22c0 89 -39 123 -129 123c-64 0 -125 -20 -139 -90l-73 12c14 106 126 139 219 139c55 0 118 -6 156 -50c42 -45 42 -109 42 -167v-197c0 -37 1 -74 11 -107h-78l-9 95
c-36 -73 -97 -105 -178 -105c-95 0 -177 53 -177 154c0 61 38 116 94 141c57 27 132 30 195 30zM399 666c0 -30 -24 -52 -53 -52s-51 24 -51 52c0 29 24 50 52 50c27 0 52 -22 52 -50zM244 666c0 -30 -24 -52 -53 -52s-51 24 -51 52c0 29 24 50 52 50c27 0 52 -22 52 -50z
" />
    <glyph glyph-name="Iacute" unicode="&#xcd;" horiz-adv-x="260" 
d="M173 0h-86v686h86v-686zM314 829l-215 -94l-20 40l201 119z" />
    <glyph glyph-name="copyright" unicode="&#xa9;" horiz-adv-x="760" 
d="M381 -10c-201 0 -364 158 -364 355c0 193 163 351 364 351c200 0 362 -158 362 -351c0 -197 -162 -355 -362 -355zM381 627c-164 0 -295 -126 -295 -282c0 -161 131 -286 295 -286c162 0 293 125 293 286c0 156 -131 282 -293 282zM498 279h67c-9 -84 -84 -137 -168 -137
c-121 0 -201 89 -201 205c0 117 75 202 198 202c88 0 157 -48 171 -132h-67c-10 55 -53 78 -101 78c-91 0 -131 -62 -131 -150c0 -86 44 -149 133 -149c47 0 91 25 99 83z" />
    <glyph glyph-name="Igrave" unicode="&#xcc;" horiz-adv-x="260" 
d="M173 0h-86v686h86v-686zM184 735l-215 94l34 65l201 -119z" />
    <glyph glyph-name="Ccedilla" unicode="&#xc7;" horiz-adv-x="620" 
d="M497 231l78 -17c-32 -130 -109 -224 -254 -224h-1l-7 -24c43 1 100 -14 100 -66c0 -53 -48 -74 -94 -74c-32 0 -64 6 -91 23l11 32c23 -11 47 -18 72 -18c20 0 51 9 51 34c0 34 -38 37 -63 37l-32 -3l20 61c-173 20 -245 199 -245 358c0 177 87 346 286 346
c138 0 219 -93 247 -219l-81 -15c-24 87 -67 162 -169 162c-149 0 -189 -162 -189 -281c0 -54 9 -121 32 -171c28 -61 81 -110 153 -110c105 0 154 79 176 169z" />
    <glyph glyph-name="scaron" unicode="&#x161;" horiz-adv-x="520" 
d="M43 135l76 15c11 -69 92 -95 153 -95c54 0 123 19 123 84c0 54 -55 69 -99 77l-83 15c-78 15 -149 51 -149 141c0 105 97 149 190 149c91 0 176 -34 201 -128l-72 -15c-20 56 -72 80 -130 80c-46 0 -108 -18 -108 -74c0 -55 46 -67 91 -74l74 -13c37 -7 75 -14 106 -35
c40 -27 61 -69 61 -115c0 -115 -112 -157 -211 -157s-197 41 -223 145zM93 706l69 10l95 -63l96 63l74 -10l-170 -124z" />
    <glyph glyph-name="egrave" unicode="&#xe8;" 
d="M412 154l74 -15c-30 -93 -119 -149 -216 -149c-154 0 -233 122 -233 264c0 140 83 267 235 267c158 0 226 -132 222 -273h-369c0 -40 2 -77 21 -115c24 -48 77 -77 130 -77c66 0 114 38 136 98zM129 306h279c1 84 -46 155 -136 155c-85 0 -140 -75 -143 -155zM344 557
l-215 94l34 65l201 -119z" />
    <glyph glyph-name="Ocircumflex" unicode="&#xd4;" horiz-adv-x="660" 
d="M331 -10c-197 0 -283 176 -283 348c0 171 84 358 282 358c193 0 282 -176 282 -345c0 -168 -86 -361 -281 -361zM331 60c147 0 191 168 191 286c0 61 -10 132 -41 187c-31 54 -84 92 -148 92c-153 0 -195 -165 -195 -288c0 -118 48 -277 193 -277zM497 771l-69 -10
l-93 62l-98 -62l-73 10l171 123z" />
    <glyph glyph-name="Thorn" unicode="&#xde;" horiz-adv-x="560" 
d="M150 220h145c41 0 77 4 109 35c25 25 38 60 38 95c0 41 -15 82 -48 108c-29 23 -58 26 -93 26h-151v-264zM304 149h-154v-149h-86v686h86v-130h144c59 0 118 -7 165 -46c45 -38 70 -102 70 -160c0 -53 -22 -108 -60 -145c-46 -45 -103 -56 -165 -56z" />
    <glyph glyph-name="atilde" unicode="&#xe3;" 
d="M393 223v33h-65c-80 0 -206 -11 -206 -116c0 -63 54 -89 110 -89c96 0 161 82 161 172zM327 315h66v22c0 89 -39 123 -129 123c-64 0 -125 -20 -139 -90l-73 12c14 106 126 139 219 139c55 0 118 -6 156 -50c42 -45 42 -109 42 -167v-197c0 -37 1 -74 11 -107h-78l-9 95
c-36 -73 -97 -105 -178 -105c-95 0 -177 53 -177 154c0 61 38 116 94 141c57 27 132 30 195 30zM403 672l36 -38c-30 -30 -61 -46 -104 -46c-31 0 -43 8 -70 21c-26 13 -48 25 -78 25c-26 0 -46 -13 -63 -31l-43 31c26 35 68 57 112 57c29 0 55 -11 80 -22s48 -22 69 -22
s43 14 61 25z" />
    <glyph glyph-name="Udieresis" unicode="&#xdc;" horiz-adv-x="640" 
d="M557 686v-434c0 -68 -4 -131 -50 -186s-115 -76 -185 -76c-67 0 -138 14 -184 66c-50 56 -54 125 -54 196v434h86v-434c0 -41 1 -97 26 -133c28 -41 86 -53 133 -53c44 0 94 14 123 49c33 39 33 90 33 137v434h72zM449 824c0 -30 -24 -52 -53 -52s-51 24 -51 52
c0 29 24 50 52 50c27 0 52 -22 52 -50zM294 824c0 -30 -24 -52 -53 -52s-51 24 -51 52c0 29 24 50 52 50c27 0 52 -22 52 -50z" />
    <glyph glyph-name="ecircumflex" unicode="&#xea;" 
d="M412 154l74 -15c-30 -93 -119 -149 -216 -149c-154 0 -233 122 -233 264c0 140 83 267 235 267c158 0 226 -132 222 -273h-369c0 -40 2 -77 21 -115c24 -48 77 -77 130 -77c66 0 114 38 136 98zM129 306h279c1 84 -46 155 -136 155c-85 0 -140 -75 -143 -155zM437 593
l-69 -10l-93 62l-98 -62l-73 10l171 123z" />
    <glyph glyph-name="apple" unicode="&#xf8ff;" horiz-adv-x="500" 
 />
    <glyph glyph-name="nbspace" unicode="&#xa0;" horiz-adv-x="300" 
 />
    <glyph glyph-name="Euro" unicode="&#x20ac;" horiz-adv-x="600" 
d="M576 639l-28 -78c-43 43 -92 65 -147 65c-47 0 -87 -21 -118 -64c-25 -34 -43 -77 -53 -130h275l-19 -58h-263c-1 -7 -1 -16 -1 -29c0 -19 0 -30 1 -35h241l-20 -58h-217c9 -51 27 -94 54 -128c33 -42 76 -63 127 -63c30 0 57 6 81 18c19 9 41 26 66 50v-96
c-41 -27 -90 -41 -147 -41c-75 0 -137 26 -186 78c-43 47 -71 107 -84 182h-75l18 58h51c-1 5 -1 16 -1 34c0 13 0 23 1 30h-69l18 58h58c11 74 39 135 83 183c49 53 111 80 186 80c35 0 64 -4 89 -13c23 -8 49 -22 79 -43z" />
    <glyph glyph-name="notequal" unicode="&#x2260;" horiz-adv-x="593" 
d="M548 117h-286l-76 -145l-58 30l61 115h-145v66h179l68 129h-247v65h282l77 147l57 -29l-62 -118h150v-65h-184l-68 -129h252v-66z" />
    <glyph glyph-name="infinity" unicode="&#x221e;" horiz-adv-x="750" 
d="M708 253c0 -86 -54 -152 -143 -152c-77 0 -137 56 -189 107c-57 -50 -109 -106 -191 -106c-87 0 -143 64 -143 149c0 83 54 152 141 152c81 0 139 -61 193 -113c50 53 109 114 187 114c88 0 145 -65 145 -151zM648 250c0 51 -30 91 -84 91c-55 0 -110 -55 -148 -91
c42 -38 91 -86 151 -86c51 0 81 38 81 86zM335 250c-39 33 -97 91 -153 91c-50 0 -80 -44 -80 -90c0 -51 32 -87 84 -87c53 0 113 50 149 86z" />
    <glyph glyph-name="lessequal" unicode="&#x2264;" horiz-adv-x="593" 
d="M548 78l-504 187v69l504 188v-71l-413 -152l413 -149v-72zM548 -28h-504v65h504v-65z" />
    <glyph glyph-name="greaterequal" unicode="&#x2265;" horiz-adv-x="593" 
d="M548 265l-504 -187v72l414 149l-414 152v71l504 -188v-69zM548 -28h-504v65h504v-65z" />
    <glyph glyph-name="partialdiff" unicode="&#x2202;" horiz-adv-x="504" 
d="M462 363c0 -150 -34 -375 -229 -375c-125 0 -201 106 -201 224c0 117 74 214 197 214c63 0 123 -32 163 -80l1 43c1 110 -38 273 -176 273c-45 0 -79 -20 -113 -47l-39 47c44 38 90 59 149 59c194 0 248 -199 248 -358zM387 279c-36 47 -89 88 -151 88
c-89 0 -135 -76 -135 -157c0 -79 45 -165 134 -165c112 0 152 144 152 234z" />
    <glyph glyph-name="summation" unicode="&#x2211;" horiz-adv-x="609" 
d="M583 -214h-558v60l326 443l-312 438v59h533v-67h-440l305 -429l-324 -437h470v-67z" />
    <glyph glyph-name="product" unicode="&#x220f;" horiz-adv-x="715" 
d="M646 -214h-73v933h-432v-933h-72v1000h577v-1000z" />
    <glyph glyph-name="pi" unicode="&#x3c0;" horiz-adv-x="567" 
d="M543 11c-23 -10 -41 -17 -66 -17c-79 0 -83 57 -83 119v301h-253v-414h-70v414h-69v65h537v-65h-76v-291c0 -32 -4 -69 38 -69c15 0 29 4 42 10v-53z" />
    <glyph glyph-name="integral" unicode="&#x222b;" horiz-adv-x="549" 
d="M412 733c0 -23 -17 -36 -39 -36c-33 0 -37 42 -54 42c-46 0 -32 -170 -32 -186v-516c0 -88 2 -250 -124 -250c-30 0 -64 15 -64 50c0 18 17 33 35 33c31 0 35 -39 51 -39c35 0 30 142 30 154v22v495c0 93 -22 284 122 284c32 0 75 -14 75 -53z" />
    <glyph glyph-name="Omega" unicode="&#x3a9;" horiz-adv-x="746" 
d="M687 0h-254v182c119 24 180 112 180 231c0 140 -107 242 -247 242c-139 0 -245 -103 -245 -242c0 -115 62 -212 180 -231v-182h-254v63h195v77c-125 34 -195 148 -195 274c0 179 145 307 320 307c174 0 320 -127 320 -305c0 -127 -69 -241 -195 -276v-77h195v-63z" />
    <glyph glyph-name="radical" unicode="&#x221a;" horiz-adv-x="498" 
d="M508 786l-211 -1000h-70l-163 337l-47 -22l-26 55l107 51l154 -326l186 905h70z" />
    <glyph glyph-name="approxequal" unicode="&#x2248;" horiz-adv-x="593" 
d="M560 408c-7 -73 -45 -141 -127 -141c-85 0 -205 72 -274 72c-45 0 -71 -37 -77 -78l-49 -1c10 71 44 144 127 144c86 0 200 -72 276 -72c46 0 69 35 77 76h47zM559 233c-8 -72 -43 -142 -126 -142c-86 0 -205 73 -275 73c-44 0 -71 -39 -77 -79h-48c9 71 43 144 126 144
c87 0 200 -72 277 -72c46 0 68 36 76 76h47z" />
    <glyph glyph-name="Delta" unicode="&#x394;" horiz-adv-x="672" 
d="M660 0h-646l280 712h79zM556 67l-223 569l-220 -569h443z" />
    <glyph glyph-name="lozenge" unicode="&#x25ca;" horiz-adv-x="593" 
d="M500 356l-171 -391h-67l-170 391l170 391h67zM430 356l-135 320l-133 -320l133 -320z" />
    </font>
</defs>
</svg>
